<?xml version="1.0" standalone="no"?>
<!DOCTYPE svg PUBLIC "-//W3C//DTD SVG 1.1//EN" "http://www.w3.org/Graphics/SVG/1.1/DTD/svg11.dtd" >
<svg xmlns="http://www.w3.org/2000/svg" xmlns:xlink="http://www.w3.org/1999/xlink" version="1.1">
<metadata>
Created by FontForge 20201107 at Wed Apr 11 17:01:58 2018
 By Unknown
Copyright (c) 2018 by Russian Fonts. All rights reserved.
</metadata>
<defs>
<font id="RFDewi-Regular" horiz-adv-x="808" >
  <font-face 
    font-family="RF Dewi"
    font-weight="400"
    font-stretch="normal"
    units-per-em="1000"
    panose-1="0 0 5 0 0 0 0 0 0 0"
    ascent="800"
    descent="-200"
    x-height="524"
    cap-height="700"
    bbox="-189 -214 1123 936"
    underline-thickness="50"
    underline-position="-200"
    unicode-range="U+0020-277E"
  />
<missing-glyph horiz-adv-x="600" 
 />
    <glyph glyph-name="f_f.liga" unicode="ff" horiz-adv-x="637" 
d="M569 679q-44 0 -60 -19.5t-16 -70.5v-65h118v-67h-118v-457h-88v457h-199v-457h-88v457h-98v67h98v65q0 83 32.5 115t103.5 32q28 0 61 -4v-67q-40 2 -44 2q-37 0 -51 -19.5t-14 -71.5v-52h199v77q0 84 34.5 115.5t112.5 31.5q38 0 71 -4v-67q-44 2 -54 2z" />
    <glyph glyph-name="f_f_i.liga" unicode="ffi" horiz-adv-x="865" 
d="M405 601q0 83 33.5 115t104.5 32q38 0 66 -4v-67q-34 2 -47 2q-39 0 -54 -19t-15 -71v-65h116v-67h-116v-457h-88v457h-199v-457h-88v457h-98v67h98v65q0 83 32.5 115t103.5 32q28 0 61 -4v-67q-40 2 -44 2q-37 0 -51 -19.5t-14 -71.5v-52h199v77zM705 722h92v-112h-92
v112zM707 0v524h88v-524h-88z" />
    <glyph glyph-name="f_i.liga" unicode="fi" horiz-adv-x="578" 
d="M118 601q0 83 33.5 115t104.5 32q38 0 66 -4v-67q-34 2 -47 2q-39 0 -54 -19t-15 -71v-65h116v-67h-116v-457h-88v457h-98v67h98v77zM418 722h93v-112h-93v112zM420 0v524h88v-524h-88z" />
    <glyph glyph-name="f_l.liga" unicode="fl" horiz-adv-x="576" 
d="M118 601q0 83 33.5 115t104.5 32q38 0 66 -4v-67q-34 2 -47 2q-39 0 -54 -19t-15 -71v-65h116v-67h-116v-457h-88v457h-98v67h98v77zM419 736h88v-736h-88v736z" />
    <glyph glyph-name=".notdef" horiz-adv-x="600" 
 />
    <glyph glyph-name=".null" horiz-adv-x="0" 
 />
    <glyph glyph-name="nonmarkingreturn" horiz-adv-x="333" 
 />
    <glyph glyph-name="space" unicode=" " horiz-adv-x="239" 
 />
    <glyph glyph-name="exclam" unicode="!" horiz-adv-x="280" 
d="M176 204h-72l-11 496h94zM89 0v115h102v-115h-102z" />
    <glyph glyph-name="quotedbl" unicode="&#x22;" horiz-adv-x="331" 
d="M63 469l-7 231h77l-7 -231h-63zM205 469l-7 231h77l-7 -231h-63z" />
    <glyph glyph-name="numbersign" unicode="#" horiz-adv-x="579" 
d="M560 441h-118l-20 -181h110v-56h-116l-23 -206h-73l23 206h-138l-23 -206h-73l23 206h-113v56h119l20 181h-111v56h117l22 191h73l-21 -191h137l22 191h73l-22 -191h112v-56zM349 260l20 181h-138l-20 -181h138z" />
    <glyph glyph-name="dollar" unicode="$" horiz-adv-x="581" 
d="M541 180q0 -91 -60.5 -139t-166.5 -53v-84h-48v85q-110 6 -169 63t-64 158l82 4q3 -68 40.5 -108t110.5 -47v255l-67 23q-143 46 -143 179q0 89 59 135.5t151 49.5v84h48v-86q89 -8 144.5 -60t62.5 -138l-83 -6q-3 54 -35 89.5t-89 44.5v-242l72 -24q78 -26 116.5 -70
t38.5 -113zM249 408l17 -5v228q-57 -3 -89 -31.5t-32 -77.5q0 -80 104 -114zM314 58q61 4 99.5 32.5t38.5 84.5q0 41 -27 68.5t-89 47.5l-22 7v-240z" />
    <glyph glyph-name="percent" unicode="%" horiz-adv-x="782" 
d="M31 538q0 79 43 123.5t117 44.5t117 -44.5t43 -123.5t-43 -124.5t-117 -45.5t-117 45.5t-43 124.5zM123 0l475 700h60l-474 -700h-61zM95 538q0 -55 25 -86t71 -31q44 0 70 31t26 86q0 54 -25.5 84.5t-70.5 30.5q-46 0 -71 -30t-25 -85zM431 163q0 78 42.5 123.5
t116.5 45.5q75 0 118 -45.5t43 -123.5t-43 -123.5t-118 -45.5q-74 0 -116.5 45.5t-42.5 123.5zM494 163q0 -54 25.5 -85.5t70.5 -31.5t70.5 31.5t25.5 85.5t-25.5 85.5t-70.5 31.5t-70.5 -31.5t-25.5 -85.5z" />
    <glyph glyph-name="ampersand" unicode="&#x26;" horiz-adv-x="629" 
d="M621 0h-93l-65 78q-72 -90 -203 -90q-107 0 -162.5 48.5t-55.5 129.5q0 29 8 53.5t17 40t32.5 36t35.5 29.5t46 32l31 22l-8 11q-52 62 -72 101t-20 76q0 70 48 107.5t123 37.5q80 0 125.5 -41.5t45.5 -111.5q0 -48 -24.5 -85.5t-81.5 -76.5l-36 -26l151 -181
q22 53 28 126h67q-10 -107 -49 -181zM267 425l5 -6l31 23q74 54 74 114q0 43 -26 68.5t-68 25.5q-37 0 -63.5 -21t-26.5 -64q0 -31 17 -61t57 -79zM264 52q102 0 157 78l-168 202l-35 -26q-48 -35 -69 -63t-21 -71q0 -53 34.5 -86.5t101.5 -33.5z" />
    <glyph glyph-name="quotesingle" unicode="'" horiz-adv-x="189" 
d="M63 469l-7 231h77l-7 -231h-63z" />
    <glyph glyph-name="parenleft" unicode="(" horiz-adv-x="313" 
d="M303 736q-165 -165 -165 -433t165 -433h-77q-71 65 -121 173t-50 260t50 260t121 173h77z" />
    <glyph glyph-name="parenright" unicode=")" horiz-adv-x="313" 
d="M87 736q71 -65 121 -173t50 -260t-50 -260t-121 -173h-77q165 165 165 433t-165 433h77z" />
    <glyph glyph-name="asterisk" unicode="*" horiz-adv-x="367" 
d="M216 539l77 -33l54 -31l-26 -46l-55 32l-66 49l10 -82v-63h-53v63l10 82l-67 -49l-54 -32l-26 46l54 31l77 33l-77 33l-54 31l26 45l54 -32l67 -49l-10 82v64h53v-64l-10 -82l66 49l55 32l26 -45l-54 -31z" />
    <glyph glyph-name="plus" unicode="+" horiz-adv-x="495" 
d="M438 363v-61h-160v-155h-61v155h-160v61h160v155h61v-155h160z" />
    <glyph glyph-name="comma" unicode="," horiz-adv-x="229" 
d="M64 -115v230h101v-70l-61 -160h-40z" />
    <glyph glyph-name="hyphen" unicode="-" horiz-adv-x="372" 
d="M57 332h258v-68h-258v68z" />
    <glyph glyph-name="period" unicode="." horiz-adv-x="229" 
d="M64 0v115h101v-115h-101z" />
    <glyph glyph-name="slash" unicode="/" horiz-adv-x="386" 
d="M271 725h80l-253 -782h-80z" />
    <glyph glyph-name="zero" unicode="0" horiz-adv-x="611" 
d="M49 350q0 169 67 265.5t190 96.5q122 0 189 -96.5t67 -265.5t-67 -265.5t-189 -96.5q-123 0 -190 96.5t-67 265.5zM137 350q0 -136 44.5 -213t124.5 -77q79 0 123.5 77t44.5 213t-44.5 213t-123.5 77q-80 0 -124.5 -77t-44.5 -213z" />
    <glyph glyph-name="one" unicode="1" horiz-adv-x="380" 
d="M200 700h70v-700h-88v598l-148 -103v88z" />
    <glyph glyph-name="two" unicode="2" horiz-adv-x="523" 
d="M135 72h357v-72h-476v66l231 239q42 43 58.5 61.5t40.5 49.5t32.5 56t8.5 53q0 56 -34 85.5t-89 29.5q-63 0 -101.5 -43.5t-45.5 -132.5l-85 7q8 120 71 180.5t161 60.5q94 0 152.5 -49t58.5 -138q0 -62 -33.5 -117.5t-115.5 -137.5z" />
    <glyph glyph-name="three" unicode="3" horiz-adv-x="546" 
d="M445 370q66 -52 66 -158t-69 -165t-179 -59q-102 0 -167.5 52.5t-75.5 156.5l85 6q8 -73 50 -108t108 -35q72 0 116 40t44 112q0 66 -40 106t-117 40q-46 0 -101 -12v62l214 220h-327v72h441v-65l-226 -217q117 3 178 -48z" />
    <glyph glyph-name="four" unicode="4" horiz-adv-x="597" 
d="M461 236h106v-72h-106v-164h-88v164h-348v66l292 470h144v-464zM112 236h261v416z" />
    <glyph glyph-name="five" unicode="5" horiz-adv-x="555" 
d="M299 462q99 0 160 -62t61 -171q0 -114 -68 -177.5t-178 -63.5q-99 0 -167 51t-81 143l86 6q10 -62 54.5 -95t107.5 -33q68 0 112.5 43.5t44.5 125.5t-44.5 124t-111.5 42q-47 0 -88.5 -20.5t-65.5 -59.5l-78 6l29 379h411v-72h-344l-18 -240q66 74 178 74z" />
    <glyph glyph-name="six" unicode="6" horiz-adv-x="593" 
d="M329 454q98 0 161.5 -62t63.5 -169q0 -110 -66 -172.5t-179 -62.5q-260 0 -260 347q0 184 68.5 280.5t194.5 96.5q94 0 151.5 -52t65.5 -141l-85 -6q-5 57 -40 92t-92 35q-101 0 -145 -110q-28 -69 -29 -191q24 55 75 85t116 30zM309 60q71 0 114 44.5t43 118.5
q0 73 -43 117.5t-114 44.5t-113.5 -44.5t-42.5 -117.5q0 -74 42.5 -118.5t113.5 -44.5z" />
    <glyph glyph-name="seven" unicode="7" horiz-adv-x="531" 
d="M31 700h473v-62q-200 -314 -269 -638h-95q69 314 278 628h-387v72z" />
    <glyph glyph-name="eight" unicode="8" horiz-adv-x="586" 
d="M386 365q76 -18 118.5 -65.5t42.5 -116.5q0 -92 -72 -143.5t-182 -51.5t-182 51.5t-72 143.5q0 69 44 116.5t120 65.5q-70 16 -108.5 58t-38.5 108q0 87 67.5 134t169.5 47q103 0 170.5 -47t67.5 -134q0 -66 -38 -108t-107 -58zM142 520q0 -60 41.5 -92t109.5 -32
t109.5 32t41.5 92q0 59 -41.5 90.5t-109.5 31.5t-109.5 -31.5t-41.5 -90.5zM293 58q75 0 121.5 35.5t46.5 99.5t-46.5 99.5t-121.5 35.5q-74 0 -121 -35.5t-47 -99.5t47 -99.5t121 -35.5z" />
    <glyph glyph-name="nine" unicode="9" horiz-adv-x="593" 
d="M282 712q262 0 262 -347q0 -186 -67 -281.5t-194 -95.5q-96 0 -153.5 51.5t-66.5 141.5l85 6q6 -57 41 -92t94 -35q99 0 144 112q28 73 28 194q-25 -55 -76 -84.5t-116 -29.5q-97 0 -161 61.5t-64 166.5q0 108 66.5 170t177.5 62zM283 321q71 0 114 44t43 115
q0 72 -43 116t-114 44q-70 0 -113 -44t-43 -116q0 -71 43 -115t113 -44z" />
    <glyph glyph-name="colon" unicode=":" horiz-adv-x="229" 
d="M64 397v115h101v-115h-101zM64 0v115h101v-115h-101z" />
    <glyph glyph-name="semicolon" unicode=";" horiz-adv-x="229" 
d="M64 397v115h101v-115h-101zM64 -115v230h101v-70l-61 -160h-40z" />
    <glyph glyph-name="less" unicode="&#x3c;" horiz-adv-x="488" 
d="M412 539v-75l-298 -132l298 -121v-75l-359 154v82z" />
    <glyph glyph-name="equal" unicode="=" horiz-adv-x="499" 
d="M59 441h381v-61h-381v61zM59 272h381v-60h-381v60z" />
    <glyph glyph-name="greater" unicode="&#x3e;" horiz-adv-x="488" 
d="M77 539l359 -167v-82l-359 -154v75l297 121l-297 132v75z" />
    <glyph glyph-name="question" unicode="?" horiz-adv-x="500" 
d="M257 712q93 0 151 -45t58 -135q0 -59 -27.5 -102.5t-89.5 -91.5q-43 -33 -57.5 -54.5t-14.5 -61.5v-16h-85v19q0 59 18 90t64 65q51 39 77 72t26 79q0 54 -32 81t-88 27q-139 0 -154 -163l-83 6q8 115 71.5 172.5t165.5 57.5zM183 0v115h102v-115h-102z" />
    <glyph glyph-name="at" unicode="@" horiz-adv-x="868" 
d="M527 463h68v-224q0 -63 18.5 -93t60.5 -30q51 0 77 41t26 117q0 141 -97 239t-245 98q-143 0 -243.5 -101t-100.5 -246q0 -156 97 -252t257 -96q116 0 201 46l25 -35q-96 -51 -226 -51q-180 0 -289 105.5t-109 282.5q0 166 112 276.5t276 110.5q169 0 277.5 -107
t108.5 -267q0 -101 -42.5 -156t-117.5 -55q-99 0 -126 86q-20 -46 -56.5 -70.5t-80.5 -24.5q-69 0 -114.5 56t-45.5 151q0 97 45.5 153t115.5 56q87 0 128 -83v73zM416 111q51 0 81 41.5t30 111.5t-30 112t-81 42t-80.5 -42t-29.5 -112q0 -69 29.5 -111t80.5 -42z" />
    <glyph glyph-name="A" unicode="A" horiz-adv-x="668" 
d="M554 0l-62 184h-318l-63 -184h-92l245 700h140l245 -700h-95zM198 254h269l-134 396z" />
    <glyph glyph-name="B" unicode="B" horiz-adv-x="663" 
d="M413 359q94 -6 150 -50.5t56 -124.5q0 -87 -64.5 -135.5t-171.5 -48.5h-299v700h295q100 0 160.5 -44.5t60.5 -130.5q0 -74 -48 -116.5t-139 -49.5zM176 628v-237h201q61 0 96 32t35 88t-36.5 86.5t-100.5 30.5h-195zM376 72q72 0 111.5 32t39.5 91t-38.5 92.5
t-108.5 33.5h-204v-249h200z" />
    <glyph glyph-name="C" unicode="C" horiz-adv-x="665" 
d="M44 350q0 162 78.5 262t221.5 100q116 0 190 -62.5t88 -168.5l-87 -9q-10 75 -63 120t-128 45q-101 0 -154.5 -82.5t-53.5 -204.5q0 -125 56.5 -206t159.5 -81q80 0 130 49.5t60 126.5l87 -7q-13 -110 -84.5 -177t-192.5 -67q-148 0 -228 99t-80 263z" />
    <glyph glyph-name="D" unicode="D" horiz-adv-x="690" 
d="M84 0v700h256q145 0 225 -92.5t80 -257.5t-80 -257.5t-225 -92.5h-256zM176 75h155q107 0 164.5 73t57.5 202t-57.5 202t-164.5 73h-155v-550z" />
    <glyph glyph-name="E" unicode="E" horiz-adv-x="609" 
d="M84 0v700h468v-73h-376v-236h298v-70h-298v-248h390v-73h-482z" />
    <glyph glyph-name="F" unicode="F" horiz-adv-x="577" 
d="M84 0v700h455v-75h-363v-247h294v-74h-294v-304h-92z" />
    <glyph glyph-name="G" unicode="G" horiz-adv-x="678" 
d="M44 350q0 162 78.5 262t222.5 100q111 0 184.5 -58.5t90.5 -158.5l-87 -8q-14 68 -65.5 109t-122.5 41q-69 0 -117.5 -41t-70 -104.5t-21.5 -141.5q0 -125 62 -206t177 -81q90 0 172 41v188h-191v64h275v-302q-130 -66 -259 -66q-159 0 -243.5 99.5t-84.5 262.5z" />
    <glyph glyph-name="H" unicode="H" horiz-adv-x="713" 
d="M537 700h92v-700h-92v318h-361v-318h-92v700h92v-306h361v306z" />
    <glyph glyph-name="I" unicode="I" horiz-adv-x="261" 
d="M84 0v700h92v-700h-92z" />
    <glyph glyph-name="J" unicode="J" horiz-adv-x="564" 
d="M39 201v64h85v-63q0 -68 36.5 -103.5t96.5 -35.5t95.5 38t35.5 111v488h92v-494q0 -107 -59 -162.5t-162 -55.5q-105 0 -162.5 56t-57.5 157z" />
    <glyph glyph-name="K" unicode="K" horiz-adv-x="668" 
d="M645 0h-110l-247 318h-112v-318h-92v700h92v-310h111l232 310h106l-266 -340z" />
    <glyph glyph-name="L" unicode="L" horiz-adv-x="548" 
d="M84 0v700h92v-625h339v-75h-431z" />
    <glyph glyph-name="M" unicode="M" horiz-adv-x="905" 
d="M661 700h159v-700h-89v646l-216 -646h-126l-216 646v-646h-89v700h161l208 -648z" />
    <glyph glyph-name="N" unicode="N" horiz-adv-x="724" 
d="M551 700h89v-700h-155l-312 645v-645h-89v700h155l312 -645v645z" />
    <glyph glyph-name="O" unicode="O" horiz-adv-x="713" 
d="M44 350q0 162 81.5 262t230.5 100q150 0 231.5 -100t81.5 -262t-81.5 -262t-231.5 -100q-149 0 -230.5 100t-81.5 262zM136 350q0 -126 58 -206.5t162 -80.5q105 0 163 80.5t58 206.5t-58 206.5t-163 80.5q-104 0 -162 -80.5t-58 -206.5z" />
    <glyph glyph-name="P" unicode="P" horiz-adv-x="638" 
d="M84 0v700h278q102 0 169 -52t67 -160q0 -107 -65.5 -157.5t-168.5 -50.5h-188v-280h-92zM176 351h176q71 0 112.5 34t41.5 103t-41.5 103t-112.5 34h-176v-274z" />
    <glyph glyph-name="Q" unicode="Q" horiz-adv-x="713" 
d="M669 350q0 -101 -33 -180.5t-96 -125.5l68 -91l-60 -40l-72 96q-52 -21 -120 -21q-149 0 -230.5 100t-81.5 262t81.5 262t230.5 100q150 0 231.5 -100t81.5 -262zM356 63q37 0 70 11l-54 73l60 40l57 -76q88 77 88 239q0 126 -58 206.5t-163 80.5q-104 0 -162 -80.5
t-58 -206.5t58 -206.5t162 -80.5z" />
    <glyph glyph-name="R" unicode="R" horiz-adv-x="661" 
d="M634 0h-111l-205 288h-142v-288h-92v700h286q102 0 169 -51.5t67 -156.5q0 -93 -52.5 -143t-138.5 -59zM176 358h184q71 0 112.5 34t41.5 100t-41.5 100t-112.5 34h-184v-268z" />
    <glyph glyph-name="S" unicode="S" horiz-adv-x="605" 
d="M33 215l86 3q3 -75 50 -116t138 -41q72 0 119 28t47 88q0 42 -28 69t-94 49l-144 46q-150 48 -150 183q0 94 66 141t167 47q109 0 178 -54t76 -150l-85 -6q-4 62 -48 99.5t-122 37.5q-66 0 -103 -28.5t-37 -80.5q0 -81 110 -115l144 -46q82 -26 122 -70t40 -116
q0 -97 -69 -146t-190 -49q-129 0 -198.5 58.5t-74.5 168.5z" />
    <glyph glyph-name="T" unicode="T" horiz-adv-x="580" 
d="M25 625v75h530v-75h-219v-625h-92v625h-219z" />
    <glyph glyph-name="U" unicode="U" horiz-adv-x="717" 
d="M84 263v437h92v-429q0 -106 45.5 -157t137.5 -51t137 50.5t45 157.5v429h92v-437q0 -139 -67.5 -207t-206.5 -68q-275 0 -275 275z" />
    <glyph glyph-name="V" unicode="V" horiz-adv-x="644" 
d="M527 700h96l-233 -700h-137l-232 700h98l203 -642z" />
    <glyph glyph-name="W" unicode="W" horiz-adv-x="961" 
d="M839 700h96l-176 -700h-137l-141 635l-144 -635h-138l-173 700h99l147 -632l144 632h132l142 -632z" />
    <glyph glyph-name="X" unicode="X" horiz-adv-x="650" 
d="M27 0l244 356l-226 344h108l171 -271l173 271h102l-224 -340l246 -360h-107l-192 287l-193 -287h-102z" />
    <glyph glyph-name="Y" unicode="Y" horiz-adv-x="654" 
d="M536 700h102l-265 -411v-289h-92v288l-264 412h105l205 -338z" />
    <glyph glyph-name="Z" unicode="Z" horiz-adv-x="576" 
d="M134 75h415v-75h-528v64l405 561h-383v75h496v-64z" />
    <glyph glyph-name="bracketleft" unicode="[" horiz-adv-x="295" 
d="M266 659h-98v-720h98v-68h-178v857h178v-69z" />
    <glyph glyph-name="backslash" unicode="\" horiz-adv-x="386" 
d="M115 725l252 -782h-80l-252 782h80z" />
    <glyph glyph-name="bracketright" unicode="]" horiz-adv-x="295" 
d="M206 728v-857h-178v68h98v720h-98v69h178z" />
    <glyph glyph-name="asciicircum" unicode="^" horiz-adv-x="386" 
d="M363 463h-70l-100 203l-100 -203h-70l127 237h86z" />
    <glyph glyph-name="underscore" unicode="_" horiz-adv-x="399" 
d="M14 -43h370v-59h-370v59z" />
    <glyph glyph-name="grave" unicode="`" horiz-adv-x="251" 
d="M211 592h-70l-101 143h92z" />
    <glyph glyph-name="a" unicode="a" horiz-adv-x="554" 
d="M41 137q0 141 206 161l156 15v50q0 49 -31.5 79.5t-92.5 29.5q-56 0 -92 -25.5t-39 -76.5h-81q3 85 61 125.5t151 40.5q103 0 157 -49t54 -141v-346h-80v108q-25 -57 -76 -88.5t-124 -31.5q-84 0 -126.5 41.5t-42.5 107.5zM128 140q0 -39 27 -64t81 -25q77 0 122 48.5
t45 125.5v32l-146 -15q-129 -12 -129 -102z" />
    <glyph glyph-name="b" unicode="b" horiz-adv-x="591" 
d="M69 0v736h88v-310q26 52 72 81t105 29q98 0 158 -73t60 -201t-60 -201t-158 -73q-63 0 -111 33t-73 93v-114h-81zM152 262q0 -93 42.5 -149t114.5 -56t114 56t42 149t-42 149t-114 56t-114.5 -56t-42.5 -149z" />
    <glyph glyph-name="c" unicode="c" horiz-adv-x="542" 
d="M39 262q0 131 65 202.5t176 71.5q90 0 151.5 -48t73.5 -137l-84 -8q-10 61 -48.5 92.5t-92.5 31.5q-70 0 -112 -54.5t-42 -150.5t42.5 -150.5t113.5 -54.5q56 0 94.5 33.5t49.5 95.5l84 -7q-12 -91 -74 -141t-154 -50q-113 0 -178 71t-65 203z" />
    <glyph glyph-name="d" unicode="d" horiz-adv-x="591" 
d="M39 262q0 127 60.5 200.5t157.5 73.5q59 0 105 -29t72 -81v310h88v-736h-81v114q-25 -60 -73 -93t-111 -33q-97 0 -157.5 73.5t-60.5 200.5zM126 262q0 -93 42 -149t114 -56t114.5 56t42.5 149t-42.5 149t-114.5 56t-114 -56t-42 -149z" />
    <glyph glyph-name="e" unicode="e" horiz-adv-x="559" 
d="M39 262q0 134 67.5 204t179.5 70q115 0 175.5 -71t60.5 -216v-12h-395q5 -90 49.5 -137.5t116.5 -47.5q102 0 139 90l83 -5q-21 -70 -78 -109.5t-144 -39.5q-117 0 -185.5 69.5t-68.5 204.5zM128 295h307q-1 82 -41.5 129.5t-107.5 47.5q-66 0 -109 -45.5t-49 -131.5z
" />
    <glyph glyph-name="f" unicode="f" horiz-adv-x="350" 
d="M20 457v67h98v77q0 84 34.5 115.5t112.5 31.5q38 0 71 -4v-67q-44 2 -53 2q-44 0 -60.5 -19.5t-16.5 -70.5v-65h118v-67h-118v-457h-88v457h-98z" />
    <glyph glyph-name="g" unicode="g" horiz-adv-x="587" 
d="M39 273q0 119 61.5 191t159.5 72q60 0 106.5 -29.5t70.5 -82.5v100h81v-486q0 -129 -55.5 -189.5t-174.5 -60.5q-99 0 -156 42.5t-60 127.5h81q3 -51 38.5 -77t96.5 -26q76 0 109 40.5t33 119.5v95q-53 -100 -170 -100q-98 0 -159.5 72t-61.5 191zM126 271
q0 -87 43 -140.5t113 -53.5q71 0 114 53.5t43 140.5t-43 141.5t-114 54.5q-70 0 -113 -54.5t-43 -141.5z" />
    <glyph glyph-name="h" unicode="h" horiz-adv-x="580" 
d="M69 0v736h88v-299q51 99 180 99q87 0 133 -47.5t46 -142.5v-346h-88v318q0 146 -121 146q-72 0 -111 -46.5t-39 -126.5v-291h-88z" />
    <glyph glyph-name="i" unicode="i" horiz-adv-x="228" 
d="M68 610v112h92v-112h-92zM70 0v524h88v-524h-88z" />
    <glyph glyph-name="j" unicode="j" horiz-adv-x="228" 
d="M68 610v112h93v-112h-93zM-32 -208v70q32 -2 40 -2q35 0 48.5 16t13.5 62v586h88v-609q0 -69 -27.5 -98t-93.5 -29q-23 0 -69 4z" />
    <glyph glyph-name="k" unicode="k" horiz-adv-x="545" 
d="M534 0h-109l-196 231h-72v-231h-88v736h88v-436h74l185 224h106l-228 -252z" />
    <glyph glyph-name="l" unicode="l" horiz-adv-x="226" 
d="M69 736h88v-736h-88v736z" />
    <glyph glyph-name="m" unicode="m" horiz-adv-x="882" 
d="M69 0v524h81v-99q22 53 66 82t105 29t102 -29t55 -85q22 55 67 84.5t107 29.5q77 0 121.5 -47t44.5 -135v-354h-88v331q0 63 -27.5 98t-80.5 35q-62 0 -98.5 -46.5t-36.5 -126.5v-291h-87v331q0 63 -28 98t-81 35q-62 0 -98 -46t-36 -127v-291h-88z" />
    <glyph glyph-name="n" unicode="n" horiz-adv-x="580" 
d="M69 0v524h81v-101q48 113 187 113q87 0 133 -47.5t46 -142.5v-346h-88v318q0 146 -121 146q-72 0 -111 -46.5t-39 -126.5v-291h-88z" />
    <glyph glyph-name="o" unicode="o" horiz-adv-x="573" 
d="M39 262q0 127 67.5 200.5t180.5 73.5t180 -73.5t67 -200.5t-67 -200.5t-180 -73.5t-180.5 73.5t-67.5 200.5zM126 262q0 -93 43.5 -149t117.5 -56q73 0 116.5 56t43.5 149t-43.5 149t-116.5 56q-74 0 -117.5 -56t-43.5 -149z" />
    <glyph glyph-name="p" unicode="p" horiz-adv-x="591" 
d="M69 -200v724h81v-112q24 59 72.5 91.5t111.5 32.5q98 0 158 -73t60 -201t-60 -201t-158 -73q-59 0 -105 29t-72 83v-300h-88zM152 262q0 -93 42.5 -149t114.5 -56t114 56t42 149t-42 149t-114 56t-114.5 -56t-42.5 -149z" />
    <glyph glyph-name="q" unicode="q" horiz-adv-x="591" 
d="M39 262q0 127 60.5 200.5t157.5 73.5q63 0 111.5 -32.5t72.5 -91.5v112h81v-724h-88v300q-25 -54 -71.5 -83t-105.5 -29q-97 0 -157.5 73.5t-60.5 200.5zM126 262q0 -93 42 -149t114 -56t114.5 56t42.5 149t-42.5 149t-114.5 56t-114 -56t-42 -149z" />
    <glyph glyph-name="r" unicode="r" horiz-adv-x="398" 
d="M307 534q22 0 58 -6v-80q-33 6 -68 6q-71 0 -105.5 -46t-34.5 -142v-266h-88l1 524h80v-108q20 57 60.5 87.5t96.5 30.5z" />
    <glyph glyph-name="s" unicode="s" horiz-adv-x="496" 
d="M25 149l80 4q10 -101 142 -101q60 0 95 21t35 60q0 29 -23.5 48t-77.5 36l-113 33q-122 36 -122 144q0 72 52.5 107t139.5 35q92 0 151.5 -38.5t66.5 -116.5l-80 -5q-6 48 -43.5 72t-94.5 24q-48 2 -77 -18.5t-29 -56.5q0 -57 85 -82l114 -33q138 -39 138 -145
q0 -72 -58 -110.5t-161 -38.5q-207 0 -220 161z" />
    <glyph glyph-name="t" unicode="t" horiz-adv-x="378" 
d="M344 457h-128v-306q0 -50 14 -68.5t53 -18.5q26 0 61 5v-70q-35 -7 -77 -7q-76 0 -107.5 33t-31.5 112v320h-110v65h84q32 0 32 31v86h82v-115h128v-67z" />
    <glyph glyph-name="u" unicode="u" horiz-adv-x="580" 
d="M423 524h88v-524h-81v108q-50 -120 -187 -120q-85 0 -132 50t-47 147v339h87v-313q0 -151 122 -151q71 0 110.5 51t39.5 132v281z" />
    <glyph glyph-name="v" unicode="v" horiz-adv-x="540" 
d="M428 524h94l-187 -524h-131l-185 524h95l156 -472z" />
    <glyph glyph-name="w" unicode="w" horiz-adv-x="847" 
d="M728 524h95l-159 -524h-123l-116 479l-118 -479h-126l-158 524h98l127 -462l117 462h122l114 -454z" />
    <glyph glyph-name="x" unicode="x" horiz-adv-x="554" 
d="M532 0h-107l-150 205l-150 -205h-102l201 264l-192 260h106l139 -198l139 198h102l-189 -257z" />
    <glyph glyph-name="y" unicode="y" horiz-adv-x="546" 
d="M432 524h94l-195 -584q-27 -87 -64 -119.5t-112 -32.5q-25 0 -58 3v68q36 -2 53 -2q41 0 62 20t39 76l15 47h-49l-198 524h96l172 -489z" />
    <glyph glyph-name="z" unicode="z" horiz-adv-x="480" 
d="M133 69h321v-69h-433v61l315 394h-295v69h406v-61z" />
    <glyph glyph-name="braceleft" unicode="{" horiz-adv-x="330" 
d="M210 442q0 -123 -100 -141v-4q100 -18 100 -140v-122q0 -55 20 -79t64 -24h8v-61h-11q-77 0 -117 35.5t-40 122.5v117q0 123 -89 123h-8v61h8q89 0 89 122v117q0 87 40 123t117 36h11v-61h-8q-44 0 -64 -24.5t-20 -79.5v-121z" />
    <glyph glyph-name="bar" unicode="|" horiz-adv-x="236" 
d="M84 736h67v-857h-67v857z" />
    <glyph glyph-name="braceright" unicode="}" horiz-adv-x="330" 
d="M285 330h8v-61h-8q-89 0 -89 -123v-117q0 -87 -40 -122.5t-117 -35.5h-11v61h8q44 0 64 24t20 79v122q0 122 100 140v4q-100 18 -100 141v121q0 55 -20 79.5t-64 24.5h-8v61h11q77 0 117 -36t40 -123v-117q0 -122 89 -122z" />
    <glyph glyph-name="asciitilde" unicode="~" horiz-adv-x="559" 
d="M428 402h56q0 -58 -26 -95t-82 -37q-38 0 -72.5 21t-63 42t-53.5 21q-27 0 -41 -20t-14 -51h-57q0 57 26.5 94.5t81.5 37.5q38 0 72.5 -21t63 -42t53.5 -21q27 0 41.5 20t14.5 51z" />
    <glyph glyph-name="uni00A0" unicode="&#xa0;" horiz-adv-x="239" 
 />
    <glyph glyph-name="exclamdown" unicode="&#xa1;" horiz-adv-x="280" 
d="M89 524h102v-115h-102v115zM176 320l11 -496h-94l11 496h72z" />
    <glyph glyph-name="cent" unicode="&#xa2;" horiz-adv-x="533" 
d="M501 172q-13 -83 -67.5 -130.5t-135.5 -52.5v-75h-45v75q-99 8 -156.5 78.5t-57.5 194.5t57.5 195t156.5 78v75h45v-75q78 -6 131.5 -51.5t65.5 -125.5l-78 -7q-11 52 -42.5 82.5t-76.5 36.5v-416q47 5 80 37t44 87zM121 262q0 -89 35.5 -143.5t96.5 -63.5v415
q-60 -9 -96 -63.5t-36 -144.5z" />
    <glyph glyph-name="sterling" unicode="&#xa3;" horiz-adv-x="524" 
d="M100 72h403v-72h-484v63q97 99 97 198q0 28 -8 60h-77v52h65q-16 72 -16 119q0 101 55 154.5t151 53.5q185 0 199 -205l-84 -6q-9 139 -115 139q-55 0 -86 -37.5t-31 -107.5q0 -42 16 -110h195v-52h-183q7 -37 7 -64q0 -95 -104 -185z" />
    <glyph glyph-name="currency" unicode="&#xa4;" horiz-adv-x="590" 
d="M554 89l-48 -48l-79 80q-56 -37 -132 -37t-131 36l-79 -78l-49 49l78 78q-38 54 -38 132t38 132l-79 79l49 48l79 -79q54 36 132 36q79 0 131 -36l79 78l49 -48l-78 -78q38 -55 38 -132q0 -78 -38 -133zM152 301q0 -68 38.5 -108t104.5 -40t104.5 40t38.5 108t-38.5 108
t-104.5 40t-104.5 -40t-38.5 -108z" />
    <glyph glyph-name="yen" unicode="&#xa5;" horiz-adv-x="619" 
d="M354 313v-6h190v-48h-190v-67h190v-47h-190v-145h-89v145h-190v47h190v67h-190v48h190v7l-248 374h101l192 -308l195 308h97z" />
    <glyph glyph-name="brokenbar" unicode="&#xa6;" horiz-adv-x="236" 
d="M84 736h67v-340h-67v340zM84 235h67v-356h-67v356z" />
    <glyph glyph-name="section" unicode="&#xa7;" horiz-adv-x="502" 
d="M376 186q80 -42 80 -128q0 -72 -52.5 -111.5t-143.5 -39.5q-90 0 -145.5 41t-61.5 124l75 3q5 -53 41 -80.5t91 -27.5q49 0 82 23t33 64q0 33 -22 53.5t-76 37.5l-113 35q-121 36 -121 141q0 83 90 120q-71 42 -71 127q0 72 50 108t129 36q82 0 137 -40t63 -118l-76 -4
q-6 50 -40 76t-84 26q-42 1 -70 -21t-28 -60q0 -63 82 -89l107 -33q132 -43 132 -144q0 -78 -88 -119zM210 241l106 -32q70 24 70 84q0 32 -23.5 54.5t-76.5 39.5l-91 29q-74 -20 -74 -84t89 -91z" />
    <glyph glyph-name="dieresis" unicode="&#xa8;" horiz-adv-x="331" 
d="M40 610v106h81v-106h-81zM211 610v106h80v-106h-80z" />
    <glyph glyph-name="copyright" unicode="&#xa9;" horiz-adv-x="812" 
d="M406 -12q-158 0 -260 99.5t-102 262.5t102 262.5t260 99.5t260 -99.5t102 -262.5t-102 -262.5t-260 -99.5zM406 35q136 0 223 90t87 225t-87 225t-223 90t-222.5 -89.5t-86.5 -225.5t86.5 -225.5t222.5 -89.5zM243 350q0 96 44.5 148.5t120.5 52.5q61 0 103.5 -35.5
t51.5 -100.5l-60 -5q-7 45 -33 68t-62 23q-46 0 -74 -40t-28 -111t28.5 -111.5t76.5 -40.5q37 0 62.5 25t32.5 71l61 -4q-9 -68 -51 -104.5t-105 -36.5q-78 0 -123 52t-45 149z" />
    <glyph glyph-name="guillemotleft" unicode="&#xab;" horiz-adv-x="453" 
d="M241 456l-142 -176l142 -176h-88l-122 155v42l122 155h88zM410 456l-142 -176l142 -176h-87l-123 155v42l123 155h87z" />
    <glyph glyph-name="logicalnot" unicode="&#xac;" horiz-adv-x="511" 
d="M65 364h371v-173h-67v112h-304v61z" />
    <glyph glyph-name="registered" unicode="&#xae;" horiz-adv-x="572" 
d="M286 212q-105 0 -177.5 71t-72.5 179t72.5 179t177.5 71t177.5 -71t72.5 -179t-72.5 -179t-177.5 -71zM286 248q90 0 151 61.5t61 152.5t-61 152.5t-151 61.5t-150.5 -61.5t-60.5 -152.5t60.5 -152.5t150.5 -61.5zM213 336v258h89q30 0 50.5 -19.5t20.5 -58.5
q0 -68 -51 -75l59 -105h-47l-53 103h-30v-103h-38zM251 470h45q37 0 37 46q0 45 -36 45h-46v-91z" />
    <glyph glyph-name="macron" unicode="&#xaf;" horiz-adv-x="365" 
d="M40 627v61h285v-61h-285z" />
    <glyph glyph-name="degree" unicode="&#xb0;" horiz-adv-x="365" 
d="M183 401q-66 0 -110 42.5t-44 112.5q0 71 44 113.5t110 42.5t109.5 -42.5t43.5 -113.5q0 -70 -43.5 -112.5t-109.5 -42.5zM183 457q40 0 66.5 28t26.5 71q0 44 -26.5 72t-66.5 28q-41 0 -67.5 -28t-26.5 -72q0 -43 26.5 -71t67.5 -28z" />
    <glyph glyph-name="plusminus" unicode="&#xb1;" horiz-adv-x="523" 
d="M292 416h160v-61h-160v-124h-61v124h-160v61h160v138h61v-138zM71 106v61h381v-61h-381z" />
    <glyph glyph-name="uni00B2" unicode="&#xb2;" horiz-adv-x="361" 
d="M111 388h224v-57h-317v52l145 139q33 32 48.5 47.5t28.5 38.5t13 45q0 31 -19.5 47.5t-51.5 16.5q-77 0 -86 -101l-68 6q5 76 47 114t107 38q62 0 101.5 -31.5t39.5 -89.5q0 -39 -21.5 -73t-74.5 -83z" />
    <glyph glyph-name="uni00B3" unicode="&#xb3;" horiz-adv-x="377" 
d="M292 570q53 -33 53 -104q0 -68 -47.5 -104t-120.5 -36q-70 0 -113.5 33t-50.5 98l68 5q10 -79 96 -79q44 0 70.5 21.5t26.5 61.5q0 37 -24 58.5t-71 21.5q-27 0 -68 -7v48l131 120h-207v57h297v-50l-143 -120q63 0 103 -24z" />
    <glyph glyph-name="acute" unicode="&#xb4;" horiz-adv-x="251" 
d="M40 592l79 143h92l-101 -143h-70z" />
    <glyph glyph-name="paragraph" unicode="&#xb6;" horiz-adv-x="544" 
d="M52 510q0 85 54 137.5t143 52.5h49v-790h-58v411q-85 0 -136.5 52.5t-51.5 136.5zM390 700h58v-790h-58v790z" />
    <glyph glyph-name="periodcentered" unicode="&#xb7;" horiz-adv-x="229" 
d="M64 252v115h101v-115h-101z" />
    <glyph glyph-name="cedilla" unicode="&#xb8;" horiz-adv-x="275" 
d="M153 -51q32 0 57 -19.5t25 -57.5q0 -41 -28.5 -60.5t-68.5 -19.5q-39 0 -65 18t-33 51l43 3q7 -34 48 -34q47 0 47 42q0 21 -13 32t-31 11q-17 0 -41 -11l-37 16l44 80h40l-36 -63q28 12 49 12z" />
    <glyph glyph-name="uni00B9" unicode="&#xb9;" horiz-adv-x="274" 
d="M128 764h58v-431h-71v348l-80 -66v74z" />
    <glyph glyph-name="guillemotright" unicode="&#xbb;" horiz-adv-x="453" 
d="M130 456l123 -155v-42l-123 -155h-87l141 176l-141 176h87zM299 456l123 -155v-42l-123 -155h-87l141 176l-141 176h87z" />
    <glyph glyph-name="onequarter" unicode="&#xbc;" horiz-adv-x="708" 
d="M102 340v285l-74 -49v66l87 58h49v-360h-62zM521 700h67l-475 -700h-68zM622 131h63v-50h-63v-81h-61v81h-206v46l167 233h100v-229zM416 131h145v200z" />
    <glyph glyph-name="onehalf" unicode="&#xbd;" horiz-adv-x="719" 
d="M102 340v285l-74 -49v66l87 58h49v-360h-62zM521 700h67l-475 -700h-68zM497 50h196v-50h-277v46l127 115q30 27 42 39t24 31.5t12 37.5q0 25 -17 39t-45 14q-31 0 -50.5 -21t-23.5 -62l-59 5q4 64 40.5 96t92.5 32q55 0 89.5 -27t34.5 -76q0 -32 -19 -61t-65 -68z" />
    <glyph glyph-name="threequarters" unicode="&#xbe;" horiz-adv-x="809" 
d="M308 448q0 -59 -41.5 -89.5t-108.5 -30.5q-61 0 -100 28t-46 84l61 4q7 -66 85 -66q39 0 63.5 18.5t24.5 51.5q0 30 -22 48t-64 18q-20 0 -61 -6v42l118 100h-185v50h265v-45l-127 -97q64 -2 97 -25q41 -28 41 -85zM621 700h68l-475 -700h-68zM723 131h63v-50h-63v-81
h-62v81h-206v46l167 233h101v-229zM517 131h144v200z" />
    <glyph glyph-name="questiondown" unicode="&#xbf;" horiz-adv-x="500" 
d="M316 524v-115h-101v115h101zM242 -188q-92 0 -150 45t-58 135q0 59 27.5 102.5t89.5 91.5q43 33 57.5 54.5t14.5 61.5v16h85v-19q0 -59 -18 -90t-64 -65q-52 -39 -78 -72t-26 -79q0 -54 32.5 -81t87.5 -27q141 0 154 163l84 -6q-8 -115 -72 -172.5t-166 -57.5z" />
    <glyph glyph-name="Agrave" unicode="&#xc0;" horiz-adv-x="668" 
d="M373 763h-70l-111 116h93zM554 0l-62 184h-318l-63 -184h-92l245 700h140l245 -700h-95zM333 650l-135 -396h269z" />
    <glyph glyph-name="Aacute" unicode="&#xc1;" horiz-adv-x="668" 
d="M478 879l-110 -116h-71l89 116h92zM554 0l-62 184h-318l-63 -184h-92l245 700h140l245 -700h-95zM333 650l-135 -396h269z" />
    <glyph glyph-name="Acircumflex" unicode="&#xc2;" horiz-adv-x="668" 
d="M334 853l-85 -88h-66l100 117h103l100 -117h-67zM554 0l-62 184h-318l-63 -184h-92l245 700h140l245 -700h-95zM333 650l-135 -396h269z" />
    <glyph glyph-name="Atilde" unicode="&#xc3;" horiz-adv-x="668" 
d="M272 814q-36 0 -36 -45h-49q0 97 80 97q34 0 73.5 -26.5t56.5 -26.5q35 0 35 45h49q0 -97 -79 -97q-35 0 -74.5 26.5t-55.5 26.5zM554 0l-62 184h-318l-63 -184h-92l245 700h140l245 -700h-95zM333 650l-135 -396h269z" />
    <glyph glyph-name="Adieresis" unicode="&#xc4;" horiz-adv-x="668" 
d="M284 860v-95h-89v95h89zM474 860v-95h-89v95h89zM554 0l-62 184h-318l-63 -184h-92l245 700h140l245 -700h-95zM333 650l-135 -396h269z" />
    <glyph glyph-name="Aring" unicode="&#xc5;" horiz-adv-x="668" 
d="M334 747q-42 0 -72.5 24t-30.5 70t30.5 70.5t72.5 24.5t73 -24.5t31 -70.5t-31 -70t-73 -24zM334 893q-24 0 -40 -14t-16 -38q0 -23 16.5 -37.5t39.5 -14.5q24 0 40.5 14.5t16.5 37.5q0 24 -16.5 38t-40.5 14zM554 0l-62 184h-318l-63 -184h-92l245 700h140l245 -700h-95
zM333 650l-135 -396h269z" />
    <glyph glyph-name="AE" unicode="&#xc6;" horiz-adv-x="1006" 
d="M13 0l371 700h566v-73h-376v-236h297v-70h-297v-248h390v-73h-482v184h-274l-97 -184h-98zM242 254h240v373h-43z" />
    <glyph glyph-name="Ccedilla" unicode="&#xc7;" horiz-adv-x="665" 
d="M352 -12h-12l-29 -51q24 12 48 12q32 0 57.5 -19.5t25.5 -57.5q0 -41 -28.5 -60.5t-68.5 -19.5q-39 0 -65 18t-33 51l43 3q7 -34 48 -34q46 0 46 42q0 21 -12.5 32t-31.5 11q-16 0 -40 -11l-37 16l39 71q-124 17 -191 113.5t-67 245.5q0 162 78.5 262t221.5 100
q116 0 190 -62.5t88 -168.5l-87 -9q-10 75 -63 120t-128 45q-101 0 -154.5 -82.5t-53.5 -204.5q0 -125 56.5 -206t159.5 -81q80 0 130 49.5t60 126.5l87 -7q-13 -110 -84.5 -177t-192.5 -67z" />
    <glyph glyph-name="Egrave" unicode="&#xc8;" horiz-adv-x="609" 
d="M348 763h-70l-111 116h92zM84 0v700h468v-73h-376v-236h298v-70h-298v-248h390v-73h-482z" />
    <glyph glyph-name="Eacute" unicode="&#xc9;" horiz-adv-x="609" 
d="M267 763l88 116h93l-111 -116h-70zM84 0v700h468v-73h-376v-236h298v-70h-298v-248h390v-73h-482z" />
    <glyph glyph-name="Ecircumflex" unicode="&#xca;" horiz-adv-x="609" 
d="M459 765h-67l-85 88l-85 -88h-66l99 117h104zM84 0v700h468v-73h-376v-236h298v-70h-298v-248h390v-73h-482z" />
    <glyph glyph-name="Edieresis" unicode="&#xcb;" horiz-adv-x="609" 
d="M168 765v95h89v-95h-89zM358 765v95h89v-95h-89zM84 0v700h468v-73h-376v-236h298v-70h-298v-248h390v-73h-482z" />
    <glyph glyph-name="Igrave" unicode="&#xcc;" horiz-adv-x="261" 
d="M166 763h-67l-96 116h90zM84 0v700h92v-700h-92z" />
    <glyph glyph-name="Iacute" unicode="&#xcd;" horiz-adv-x="261" 
d="M95 763l73 116h89l-95 -116h-67zM84 0v700h92v-700h-92z" />
    <glyph glyph-name="Icircumflex" unicode="&#xce;" horiz-adv-x="261" 
d="M282 765h-67l-85 88l-85 -88h-66l100 117h103zM84 0v700h92v-700h-92z" />
    <glyph glyph-name="Idieresis" unicode="&#xcf;" horiz-adv-x="261" 
d="M12 765v95h80v-95h-80zM169 765v95h80v-95h-80zM84 0v700h92v-700h-92z" />
    <glyph glyph-name="Eth" unicode="&#xd0;" horiz-adv-x="704" 
d="M354 700q146 0 226 -92.5t80 -257.5t-80 -257.5t-226 -92.5h-255v317h-68v66h68v317h255zM346 75q107 0 164.5 73.5t57.5 201.5t-57.5 201.5t-164.5 73.5h-155v-242h195v-66h-195v-242h155z" />
    <glyph glyph-name="Ntilde" unicode="&#xd1;" horiz-adv-x="724" 
d="M300 814q-36 0 -36 -45h-49q0 97 79 97q35 0 74.5 -26.5t56.5 -26.5q35 0 35 45h49q0 -97 -79 -97q-35 0 -74.5 26.5t-55.5 26.5zM551 700h89v-700h-155l-312 645v-645h-89v700h155l312 -645v645z" />
    <glyph glyph-name="Ograve" unicode="&#xd2;" horiz-adv-x="713" 
d="M397 763h-70l-111 116h93zM44 350q0 162 81.5 262t230.5 100q150 0 231.5 -100t81.5 -262t-81.5 -262t-231.5 -100q-149 0 -230.5 100t-81.5 262zM136 350q0 -126 58 -206.5t162 -80.5q105 0 163 80.5t58 206.5t-58 206.5t-163 80.5q-104 0 -162 -80.5t-58 -206.5z" />
    <glyph glyph-name="Oacute" unicode="&#xd3;" horiz-adv-x="713" 
d="M316 763l88 116h93l-111 -116h-70zM44 350q0 162 81.5 262t230.5 100q150 0 231.5 -100t81.5 -262t-81.5 -262t-231.5 -100q-149 0 -230.5 100t-81.5 262zM136 350q0 -126 58 -206.5t162 -80.5q105 0 163 80.5t58 206.5t-58 206.5t-163 80.5q-104 0 -162 -80.5
t-58 -206.5z" />
    <glyph glyph-name="Ocircumflex" unicode="&#xd4;" horiz-adv-x="713" 
d="M508 765h-67l-85 88l-85 -88h-66l100 117h103zM44 350q0 162 81.5 262t230.5 100q150 0 231.5 -100t81.5 -262t-81.5 -262t-231.5 -100q-149 0 -230.5 100t-81.5 262zM136 350q0 -126 58 -206.5t162 -80.5q105 0 163 80.5t58 206.5t-58 206.5t-163 80.5
q-104 0 -162 -80.5t-58 -206.5z" />
    <glyph glyph-name="Otilde" unicode="&#xd5;" horiz-adv-x="713" 
d="M454 858h49q0 -97 -79 -97q-35 0 -74.5 26.5t-55.5 26.5q-36 0 -36 -45h-49q0 97 80 97q34 0 73.5 -26.5t56.5 -26.5q35 0 35 45zM44 350q0 162 81.5 262t230.5 100q150 0 231.5 -100t81.5 -262t-81.5 -262t-231.5 -100q-149 0 -230.5 100t-81.5 262zM136 350
q0 -126 58 -206.5t162 -80.5q105 0 163 80.5t58 206.5t-58 206.5t-163 80.5q-104 0 -162 -80.5t-58 -206.5z" />
    <glyph glyph-name="Odieresis" unicode="&#xd6;" horiz-adv-x="713" 
d="M217 765v95h89v-95h-89zM407 765v95h89v-95h-89zM44 350q0 162 81.5 262t230.5 100q150 0 231.5 -100t81.5 -262t-81.5 -262t-231.5 -100q-149 0 -230.5 100t-81.5 262zM136 350q0 -126 58 -206.5t162 -80.5q105 0 163 80.5t58 206.5t-58 206.5t-163 80.5
q-104 0 -162 -80.5t-58 -206.5z" />
    <glyph glyph-name="multiply" unicode="&#xd7;" horiz-adv-x="504" 
d="M437 474l-141 -142l141 -141l-44 -44l-141 141l-142 -141l-44 44l142 141l-142 142l44 44l142 -142l141 142z" />
    <glyph glyph-name="Oslash" unicode="&#xd8;" horiz-adv-x="713" 
d="M589 610q80 -98 80 -260t-81.5 -262t-231.5 -100q-113 0 -190 61l-52 -69l-53 29l62 82q-79 97 -79 259t81.5 262t230.5 100q113 0 190 -60l52 68l53 -28zM136 350q0 -110 44 -184l315 418q-58 53 -139 53q-104 0 -162 -80.5t-58 -206.5zM356 63q105 0 163 80.5t58 206.5
q0 111 -44 185l-315 -418q56 -54 138 -54z" />
    <glyph glyph-name="Ugrave" unicode="&#xd9;" horiz-adv-x="717" 
d="M399 763h-70l-111 116h93zM84 263v437h92v-429q0 -106 45.5 -157t137.5 -51t137 50.5t45 157.5v429h92v-437q0 -139 -67.5 -207t-206.5 -68q-275 0 -275 275z" />
    <glyph glyph-name="Uacute" unicode="&#xda;" horiz-adv-x="717" 
d="M318 763l89 116h92l-110 -116h-71zM84 263v437h92v-429q0 -106 45.5 -157t137.5 -51t137 50.5t45 157.5v429h92v-437q0 -139 -67.5 -207t-206.5 -68q-275 0 -275 275z" />
    <glyph glyph-name="Ucircumflex" unicode="&#xdb;" horiz-adv-x="717" 
d="M510 765h-66l-85 88l-85 -88h-67l100 117h104zM84 263v437h92v-429q0 -106 45.5 -157t137.5 -51t137 50.5t45 157.5v429h92v-437q0 -139 -67.5 -207t-206.5 -68q-275 0 -275 275z" />
    <glyph glyph-name="Udieresis" unicode="&#xdc;" horiz-adv-x="717" 
d="M219 765v95h89v-95h-89zM409 765v95h89v-95h-89zM84 263v437h92v-429q0 -106 45.5 -157t137.5 -51t137 50.5t45 157.5v429h92v-437q0 -139 -67.5 -207t-206.5 -68q-275 0 -275 275z" />
    <glyph glyph-name="Yacute" unicode="&#xdd;" horiz-adv-x="654" 
d="M468 879l-111 -116h-70l88 116h93zM536 700h102l-265 -411v-289h-92v288l-264 412h105l205 -338z" />
    <glyph glyph-name="Thorn" unicode="&#xde;" horiz-adv-x="638" 
d="M362 576q101 0 168.5 -51.5t67.5 -154.5t-65.5 -152.5t-168.5 -49.5h-188v-168h-92v700h92v-124h186zM352 240q71 0 112.5 32.5t41.5 97.5q0 64 -41.5 97t-112.5 33h-176v-260h176z" />
    <glyph glyph-name="germandbls" unicode="&#xdf;" horiz-adv-x="566" 
d="M330 429q97 -9 149 -65t52 -153q0 -108 -61.5 -162.5t-156.5 -54.5q-26 0 -64 6v72q32 -6 53 -6q58 0 99.5 36.5t41.5 116.5t-43.5 126t-125.5 46h-31v69h28q61 0 93 32t32 89q0 58 -32.5 88.5t-88.5 30.5q-118 0 -118 -147v-553h-88v565q0 97 53 149t153 52
q90 0 149.5 -45t59.5 -133q0 -139 -154 -159z" />
    <glyph glyph-name="agrave" unicode="&#xe0;" horiz-adv-x="554" 
d="M328 592h-69l-101 143h91zM41 137q0 141 206 161l156 15v50q0 49 -31.5 79.5t-92.5 29.5q-56 0 -92 -25.5t-39 -76.5h-81q3 85 61 125.5t151 40.5q103 0 157 -49t54 -141v-346h-80v108q-25 -57 -76 -88.5t-124 -31.5q-84 0 -126.5 41.5t-42.5 107.5zM128 140
q0 -39 27 -64t81 -25q77 0 122 48.5t45 125.5v32l-146 -15q-129 -12 -129 -102z" />
    <glyph glyph-name="aacute" unicode="&#xe1;" horiz-adv-x="554" 
d="M227 592l78 143h92l-101 -143h-69zM41 137q0 141 206 161l156 15v50q0 49 -31.5 79.5t-92.5 29.5q-56 0 -92 -25.5t-39 -76.5h-81q3 85 61 125.5t151 40.5q103 0 157 -49t54 -141v-346h-80v108q-25 -57 -76 -88.5t-124 -31.5q-84 0 -126.5 41.5t-42.5 107.5zM128 140
q0 -39 27 -64t81 -25q77 0 122 48.5t45 125.5v32l-146 -15q-129 -12 -129 -102z" />
    <glyph glyph-name="acircumflex" unicode="&#xe2;" horiz-adv-x="554" 
d="M420 592h-65l-78 110l-77 -110h-66l95 143h97zM41 137q0 141 206 161l156 15v50q0 49 -31.5 79.5t-92.5 29.5q-56 0 -92 -25.5t-39 -76.5h-81q3 85 61 125.5t151 40.5q103 0 157 -49t54 -141v-346h-80v108q-25 -57 -76 -88.5t-124 -31.5q-84 0 -126.5 41.5t-42.5 107.5z
M128 140q0 -39 27 -64t81 -25q77 0 122 48.5t45 125.5v32l-146 -15q-129 -12 -129 -102z" />
    <glyph glyph-name="atilde" unicode="&#xe3;" horiz-adv-x="554" 
d="M378 698h51q0 -101 -82 -101q-36 0 -76.5 28t-58.5 28q-17 0 -26.5 -13.5t-9.5 -34.5h-51q0 44 19.5 72.5t63.5 28.5q36 0 76.5 -28t57.5 -28q36 0 36 48zM41 137q0 141 206 161l156 15v50q0 49 -31.5 79.5t-92.5 29.5q-56 0 -92 -25.5t-39 -76.5h-81q3 85 61 125.5
t151 40.5q103 0 157 -49t54 -141v-346h-80v108q-25 -57 -76 -88.5t-124 -31.5q-84 0 -126.5 41.5t-42.5 107.5zM128 140q0 -39 27 -64t81 -25q77 0 122 48.5t45 125.5v32l-146 -15q-129 -12 -129 -102z" />
    <glyph glyph-name="adieresis" unicode="&#xe4;" horiz-adv-x="554" 
d="M152 610v106h81v-106h-81zM322 610v106h81v-106h-81zM41 137q0 141 206 161l156 15v50q0 49 -31.5 79.5t-92.5 29.5q-56 0 -92 -25.5t-39 -76.5h-81q3 85 61 125.5t151 40.5q103 0 157 -49t54 -141v-346h-80v108q-25 -57 -76 -88.5t-124 -31.5q-84 0 -126.5 41.5
t-42.5 107.5zM128 140q0 -39 27 -64t81 -25q77 0 122 48.5t45 125.5v32l-146 -15q-129 -12 -129 -102z" />
    <glyph glyph-name="aring" unicode="&#xe5;" horiz-adv-x="554" 
d="M277 782q42 0 73 -24.5t31 -71.5q0 -48 -31 -72.5t-73 -24.5t-72.5 24.5t-30.5 72.5q0 47 30.5 71.5t72.5 24.5zM277 631q24 0 40.5 15t16.5 40t-16.5 39.5t-40.5 14.5q-23 0 -39.5 -14.5t-16.5 -39.5t16 -40t40 -15zM41 137q0 141 206 161l156 15v50q0 49 -31.5 79.5
t-92.5 29.5q-56 0 -92 -25.5t-39 -76.5h-81q3 85 61 125.5t151 40.5q103 0 157 -49t54 -141v-346h-80v108q-25 -57 -76 -88.5t-124 -31.5q-84 0 -126.5 41.5t-42.5 107.5zM128 140q0 -39 27 -64t81 -25q77 0 122 48.5t45 125.5v32l-146 -15q-129 -12 -129 -102z" />
    <glyph glyph-name="ae" unicode="&#xe6;" horiz-adv-x="909" 
d="M872 249v-12h-380q5 -89 48.5 -137t110.5 -48q46 0 80.5 24.5t50.5 65.5l83 -5q-20 -69 -76 -109t-138 -40q-162 0 -214 140q-26 -65 -84 -102.5t-140 -37.5q-86 0 -129 41.5t-43 107.5q0 146 206 158l156 11v56q0 49 -31 80t-93 30q-56 0 -92 -25.5t-39 -76.5h-81
q3 85 60.5 125.5t148.5 40.5q147 0 182 -103q59 103 188 103q107 0 166.5 -72t59.5 -215zM493 295h293q-2 81 -40.5 129t-101.5 48q-61 0 -102.5 -46t-48.5 -131zM403 225v24l-146 -10q-129 -9 -129 -99q0 -39 27 -64t81 -25q77 0 122 48.5t45 125.5z" />
    <glyph glyph-name="ccedilla" unicode="&#xe7;" horiz-adv-x="542" 
d="M282 -12h-3l-29 -51q24 12 49 12q31 0 56.5 -19.5t25.5 -57.5q0 -41 -28.5 -60.5t-68.5 -19.5q-39 0 -65 18t-33 51l43 3q7 -34 48 -34q46 0 46 42q0 21 -12.5 32t-31.5 11q-16 0 -40 -11l-37 16l39 71q-95 12 -148.5 82t-53.5 189q0 131 65 202.5t176 71.5
q90 0 151.5 -48t73.5 -137l-84 -8q-10 61 -48.5 92.5t-92.5 31.5q-70 0 -112 -54.5t-42 -150.5t42.5 -150.5t113.5 -54.5q56 0 94.5 33.5t49.5 95.5l84 -7q-12 -91 -74 -141t-154 -50z" />
    <glyph glyph-name="egrave" unicode="&#xe8;" horiz-adv-x="559" 
d="M328 592h-70l-101 143h92zM39 262q0 134 67.5 204t179.5 70q115 0 175.5 -71t60.5 -216v-12h-395q5 -90 49.5 -137.5t116.5 -47.5q102 0 139 90l83 -5q-21 -70 -78 -109.5t-144 -39.5q-117 0 -185.5 69.5t-68.5 204.5zM128 295h307q-1 82 -41.5 129.5t-107.5 47.5
q-66 0 -109 -45.5t-49 -131.5z" />
    <glyph glyph-name="eacute" unicode="&#xe9;" horiz-adv-x="559" 
d="M226 592l79 143h92l-101 -143h-70zM39 262q0 134 67.5 204t179.5 70q115 0 175.5 -71t60.5 -216v-12h-395q5 -90 49.5 -137.5t116.5 -47.5q102 0 139 90l83 -5q-21 -70 -78 -109.5t-144 -39.5q-117 0 -185.5 69.5t-68.5 204.5zM128 295h307q-1 82 -41.5 129.5
t-107.5 47.5q-66 0 -109 -45.5t-49 -131.5z" />
    <glyph glyph-name="ecircumflex" unicode="&#xea;" horiz-adv-x="559" 
d="M420 592h-65l-78 110l-78 -110h-65l94 143h98zM39 262q0 134 67.5 204t179.5 70q115 0 175.5 -71t60.5 -216v-12h-395q5 -90 49.5 -137.5t116.5 -47.5q102 0 139 90l83 -5q-21 -70 -78 -109.5t-144 -39.5q-117 0 -185.5 69.5t-68.5 204.5zM128 295h307q-1 82 -41.5 129.5
t-107.5 47.5q-66 0 -109 -45.5t-49 -131.5z" />
    <glyph glyph-name="edieresis" unicode="&#xeb;" horiz-adv-x="559" 
d="M151 610v106h81v-106h-81zM322 610v106h81v-106h-81zM39 262q0 134 67.5 204t179.5 70q115 0 175.5 -71t60.5 -216v-12h-395q5 -90 49.5 -137.5t116.5 -47.5q102 0 139 90l83 -5q-21 -70 -78 -109.5t-144 -39.5q-117 0 -185.5 69.5t-68.5 204.5zM128 295h307
q-1 82 -41.5 129.5t-107.5 47.5q-66 0 -109 -45.5t-49 -131.5z" />
    <glyph glyph-name="igrave" unicode="&#xec;" horiz-adv-x="223" 
d="M150 592h-68l-84 143h90zM66 0v524h88v-524h-88z" />
    <glyph glyph-name="iacute" unicode="&#xed;" horiz-adv-x="227" 
d="M73 592l62 143h90l-83 -143h-69zM69 0v524h88v-524h-88z" />
    <glyph glyph-name="icircumflex" unicode="&#xee;" horiz-adv-x="233" 
d="M260 592h-66l-77 110l-78 -110h-65l94 143h97zM73 0v524h87v-524h-87z" />
    <glyph glyph-name="idieresis" unicode="&#xef;" horiz-adv-x="220" 
d="M-1 610v106h76v-106h-76zM146 610v106h75v-106h-75zM66 0v524h88v-524h-88z" />
    <glyph glyph-name="eth" unicode="&#xf0;" horiz-adv-x="579" 
d="M371 665q163 -112 163 -357q0 -164 -68 -242t-181 -78q-111 0 -178.5 70t-67.5 190q0 119 65 189.5t167 70.5q72 0 122.5 -37t73.5 -104q-13 94 -53 156t-113 102l-126 -73l-20 34l103 59q-59 25 -149 42l16 71q122 -23 208 -69l103 59l19 -34zM287 57q74 0 117 51.5
t43 139.5t-43 139.5t-117 51.5t-117.5 -51.5t-43.5 -139.5t43.5 -139.5t117.5 -51.5z" />
    <glyph glyph-name="ntilde" unicode="&#xf1;" horiz-adv-x="580" 
d="M390 698h51q0 -101 -82 -101q-37 0 -77.5 28t-57.5 28q-36 0 -36 -48h-51q0 101 82 101q37 0 77 -28t58 -28q17 0 26.5 13.5t9.5 34.5zM69 0v524h81v-101q48 113 187 113q87 0 133 -47.5t46 -142.5v-346h-88v318q0 146 -121 146q-72 0 -111 -46.5t-39 -126.5v-291h-88z
" />
    <glyph glyph-name="ograve" unicode="&#xf2;" horiz-adv-x="573" 
d="M337 592h-69l-101 143h92zM39 262q0 127 67.5 200.5t180.5 73.5t180 -73.5t67 -200.5t-67 -200.5t-180 -73.5t-180.5 73.5t-67.5 200.5zM126 262q0 -93 43.5 -149t117.5 -56q73 0 116.5 56t43.5 149t-43.5 149t-116.5 56q-74 0 -117.5 -56t-43.5 -149z" />
    <glyph glyph-name="oacute" unicode="&#xf3;" horiz-adv-x="573" 
d="M236 592l79 143h91l-101 -143h-69zM39 262q0 127 67.5 200.5t180.5 73.5t180 -73.5t67 -200.5t-67 -200.5t-180 -73.5t-180.5 73.5t-67.5 200.5zM126 262q0 -93 43.5 -149t117.5 -56q73 0 116.5 56t43.5 149t-43.5 149t-116.5 56q-74 0 -117.5 -56t-43.5 -149z" />
    <glyph glyph-name="ocircumflex" unicode="&#xf4;" horiz-adv-x="573" 
d="M430 592h-66l-77 110l-78 -110h-65l94 143h97zM39 262q0 127 67.5 200.5t180.5 73.5t180 -73.5t67 -200.5t-67 -200.5t-180 -73.5t-180.5 73.5t-67.5 200.5zM126 262q0 -93 43.5 -149t117.5 -56q73 0 116.5 56t43.5 149t-43.5 149t-116.5 56q-74 0 -117.5 -56t-43.5 -149
z" />
    <glyph glyph-name="otilde" unicode="&#xf5;" horiz-adv-x="573" 
d="M388 698h51q0 -101 -83 -101q-36 0 -76.5 28t-57.5 28q-18 0 -27.5 -13t-9.5 -35h-51q0 44 19.5 72.5t63.5 28.5q36 0 76.5 -28t57.5 -28q37 0 37 48zM39 262q0 127 67.5 200.5t180.5 73.5t180 -73.5t67 -200.5t-67 -200.5t-180 -73.5t-180.5 73.5t-67.5 200.5zM126 262
q0 -93 43.5 -149t117.5 -56q73 0 116.5 56t43.5 149t-43.5 149t-116.5 56q-74 0 -117.5 -56t-43.5 -149z" />
    <glyph glyph-name="odieresis" unicode="&#xf6;" horiz-adv-x="573" 
d="M161 610v106h81v-106h-81zM332 610v106h80v-106h-80zM39 262q0 127 67.5 200.5t180.5 73.5t180 -73.5t67 -200.5t-67 -200.5t-180 -73.5t-180.5 73.5t-67.5 200.5zM126 262q0 -93 43.5 -149t117.5 -56q73 0 116.5 56t43.5 149t-43.5 149t-116.5 56q-74 0 -117.5 -56
t-43.5 -149z" />
    <glyph glyph-name="divide" unicode="&#xf7;" horiz-adv-x="499" 
d="M249 442q-19 0 -32 13.5t-13 32.5t13 32.5t32 13.5t32.5 -13t13.5 -33q0 -19 -13.5 -32.5t-32.5 -13.5zM59 364h381v-63h-381v63zM249 131q-19 0 -32 13.5t-13 32.5t13 32.5t32 13.5t32.5 -13.5t13.5 -32.5t-13.5 -32.5t-32.5 -13.5z" />
    <glyph glyph-name="oslash" unicode="&#xf8;" horiz-adv-x="573" 
d="M469 461q65 -73 65 -199q0 -127 -67 -200.5t-180 -73.5q-85 0 -144 41l-43 -56l-44 26l48 64q-65 75 -65 199q0 127 67.5 200.5t180.5 73.5q84 0 143 -41l42 56l45 -26zM126 262q0 -77 31 -130l226 301q-40 34 -96 34q-74 0 -117.5 -56t-43.5 -149zM287 57q73 0 116.5 56
t43.5 149q0 76 -30 130l-227 -300q40 -35 97 -35z" />
    <glyph glyph-name="ugrave" unicode="&#xf9;" horiz-adv-x="580" 
d="M342 592h-70l-101 143h92zM423 524h88v-524h-81v108q-50 -120 -187 -120q-85 0 -132 50t-47 147v339h87v-313q0 -151 122 -151q71 0 110.5 51t39.5 132v281z" />
    <glyph glyph-name="uacute" unicode="&#xfa;" horiz-adv-x="580" 
d="M240 592l79 143h92l-101 -143h-70zM423 524h88v-524h-81v108q-50 -120 -187 -120q-85 0 -132 50t-47 147v339h87v-313q0 -151 122 -151q71 0 110.5 51t39.5 132v281z" />
    <glyph glyph-name="ucircumflex" unicode="&#xfb;" horiz-adv-x="580" 
d="M434 592h-65l-78 110l-78 -110h-65l94 143h98zM423 524h88v-524h-81v108q-50 -120 -187 -120q-85 0 -132 50t-47 147v339h87v-313q0 -151 122 -151q71 0 110.5 51t39.5 132v281z" />
    <glyph glyph-name="udieresis" unicode="&#xfc;" horiz-adv-x="580" 
d="M165 610v106h81v-106h-81zM336 610v106h81v-106h-81zM423 524h88v-524h-81v108q-50 -120 -187 -120q-85 0 -132 50t-47 147v339h87v-313q0 -151 122 -151q71 0 110.5 51t39.5 132v281z" />
    <glyph glyph-name="yacute" unicode="&#xfd;" horiz-adv-x="546" 
d="M392 735l-101 -143h-69l79 143h91zM432 524h94l-195 -584q-27 -87 -64 -119.5t-112 -32.5q-25 0 -58 3v68q36 -2 53 -2q41 0 62 20t39 76l15 47h-49l-198 524h96l172 -489z" />
    <glyph glyph-name="thorn" unicode="&#xfe;" horiz-adv-x="591" 
d="M69 -200v936h88v-310q26 52 72 81t105 29q98 0 158 -73t60 -201t-60 -201t-158 -73q-59 0 -105 29t-72 83v-300h-88zM152 262q0 -93 42.5 -149t114.5 -56t114 56t42 149t-42 149t-114 56t-114.5 -56t-42.5 -149z" />
    <glyph glyph-name="ydieresis" unicode="&#xff;" horiz-adv-x="546" 
d="M228 716v-106h-81v106h81zM398 716v-106h-80v106h80zM432 524h94l-195 -584q-27 -87 -64 -119.5t-112 -32.5q-25 0 -58 3v68q36 -2 53 -2q41 0 62 20t39 76l15 47h-49l-198 524h96l172 -489z" />
    <glyph glyph-name="Amacron" unicode="&#x100;" horiz-adv-x="668" 
d="M487 834v-62h-305v62h305zM554 0l-62 184h-318l-63 -184h-92l245 700h140l245 -700h-95zM333 650l-135 -396h269z" />
    <glyph glyph-name="amacron" unicode="&#x101;" horiz-adv-x="554" 
d="M135 627v61h285v-61h-285zM41 137q0 141 206 161l156 15v50q0 49 -31.5 79.5t-92.5 29.5q-56 0 -92 -25.5t-39 -76.5h-81q3 85 61 125.5t151 40.5q103 0 157 -49t54 -141v-346h-80v108q-25 -57 -76 -88.5t-124 -31.5q-84 0 -126.5 41.5t-42.5 107.5zM128 140
q0 -39 27 -64t81 -25q77 0 122 48.5t45 125.5v32l-146 -15q-129 -12 -129 -102z" />
    <glyph glyph-name="Abreve" unicode="&#x102;" horiz-adv-x="668" 
d="M334 759q-69 0 -106 34.5t-39 91.5h56q3 -30 23.5 -50.5t65.5 -20.5t66 20.5t24 50.5h55q-2 -57 -38.5 -91.5t-106.5 -34.5zM554 0l-62 184h-318l-63 -184h-92l245 700h140l245 -700h-95zM333 650l-135 -396h269z" />
    <glyph glyph-name="abreve" unicode="&#x103;" horiz-adv-x="554" 
d="M365 731h53q-2 -63 -37.5 -100.5t-103.5 -37.5q-67 0 -102.5 37.5t-37.5 100.5h53q6 -83 87 -83q80 0 88 83zM41 137q0 141 206 161l156 15v50q0 49 -31.5 79.5t-92.5 29.5q-56 0 -92 -25.5t-39 -76.5h-81q3 85 61 125.5t151 40.5q103 0 157 -49t54 -141v-346h-80v108
q-25 -57 -76 -88.5t-124 -31.5q-84 0 -126.5 41.5t-42.5 107.5zM128 140q0 -39 27 -64t81 -25q77 0 122 48.5t45 125.5v32l-146 -15q-129 -12 -129 -102z" />
    <glyph glyph-name="Aogonek" unicode="&#x104;" horiz-adv-x="668" 
d="M628 -104l37 -10q-8 -39 -34 -60.5t-65 -21.5q-37 0 -59.5 19t-22.5 55q0 42 30 69.5t82 52.5h-42l-62 184h-318l-63 -184h-92l245 700h140l245 -700q-34 -21 -53.5 -35.5t-36 -36.5t-16.5 -45q0 -38 35 -38q41 0 50 51zM333 650l-135 -396h269z" />
    <glyph glyph-name="aogonek" unicode="&#x105;" horiz-adv-x="554" 
d="M469 -104l38 -10q-18 -82 -100 -82q-37 0 -59.5 19t-22.5 55q0 42 30 69.5t82 52.5h-27v108q-25 -57 -76 -88.5t-124 -31.5q-84 0 -126.5 41.5t-42.5 107.5q0 141 206 161l156 15v50q0 49 -31.5 79.5t-92.5 29.5q-56 0 -92 -25.5t-39 -76.5h-81q3 85 61 125.5t151 40.5
q103 0 157 -49t54 -141v-346q-34 -21 -53.5 -35.5t-36 -36.5t-16.5 -45q0 -38 36 -38q41 0 49 51zM403 225v32l-146 -15q-129 -12 -129 -102q0 -39 27 -64t81 -25q77 0 122 48.5t45 125.5z" />
    <glyph glyph-name="Cacute" unicode="&#x106;" horiz-adv-x="665" 
d="M292 763l89 116h92l-110 -116h-71zM44 350q0 162 78.5 262t221.5 100q116 0 190 -62.5t88 -168.5l-87 -9q-10 75 -63 120t-128 45q-101 0 -154.5 -82.5t-53.5 -204.5q0 -125 56.5 -206t159.5 -81q80 0 130 49.5t60 126.5l87 -7q-13 -110 -84.5 -177t-192.5 -67
q-148 0 -228 99t-80 263z" />
    <glyph glyph-name="cacute" unicode="&#x107;" horiz-adv-x="542" 
d="M221 592l79 143h92l-101 -143h-70zM39 262q0 131 65 202.5t176 71.5q90 0 151.5 -48t73.5 -137l-84 -8q-10 61 -48.5 92.5t-92.5 31.5q-70 0 -112 -54.5t-42 -150.5t42.5 -150.5t113.5 -54.5q56 0 94.5 33.5t49.5 95.5l84 -7q-12 -91 -74 -141t-154 -50q-113 0 -178 71
t-65 203z" />
    <glyph glyph-name="Cdotaccent" unicode="&#x10a;" horiz-adv-x="665" 
d="M283 764v97h99v-97h-99zM44 350q0 162 78.5 262t221.5 100q116 0 190 -62.5t88 -168.5l-87 -9q-10 75 -63 120t-128 45q-101 0 -154.5 -82.5t-53.5 -204.5q0 -125 56.5 -206t159.5 -81q80 0 130 49.5t60 126.5l87 -7q-13 -110 -84.5 -177t-192.5 -67q-148 0 -228 99
t-80 263z" />
    <glyph glyph-name="cdotaccent" unicode="&#x10b;" horiz-adv-x="542" 
d="M226 610v112h92v-112h-92zM39 262q0 131 65 202.5t176 71.5q90 0 151.5 -48t73.5 -137l-84 -8q-10 61 -48.5 92.5t-92.5 31.5q-70 0 -112 -54.5t-42 -150.5t42.5 -150.5t113.5 -54.5q56 0 94.5 33.5t49.5 95.5l84 -7q-12 -91 -74 -141t-154 -50q-113 0 -178 71t-65 203z
" />
    <glyph glyph-name="Ccaron" unicode="&#x10c;" horiz-adv-x="665" 
d="M418 879h66l-99 -117h-104l-100 117h67l85 -88zM44 350q0 162 78.5 262t221.5 100q116 0 190 -62.5t88 -168.5l-87 -9q-10 75 -63 120t-128 45q-101 0 -154.5 -82.5t-53.5 -204.5q0 -125 56.5 -206t159.5 -81q80 0 130 49.5t60 126.5l87 -7q-13 -110 -84.5 -177
t-192.5 -67q-148 0 -228 99t-80 263z" />
    <glyph glyph-name="ccaron" unicode="&#x10d;" horiz-adv-x="542" 
d="M350 732h65l-94 -143h-98l-94 143h65l78 -110zM39 262q0 131 65 202.5t176 71.5q90 0 151.5 -48t73.5 -137l-84 -8q-10 61 -48.5 92.5t-92.5 31.5q-70 0 -112 -54.5t-42 -150.5t42.5 -150.5t113.5 -54.5q56 0 94.5 33.5t49.5 95.5l84 -7q-12 -91 -74 -141t-154 -50
q-113 0 -178 71t-65 203z" />
    <glyph glyph-name="Dcaron" unicode="&#x10e;" horiz-adv-x="690" 
d="M430 879h67l-100 -117h-104l-100 117h67l85 -88zM84 0v700h256q145 0 225 -92.5t80 -257.5t-80 -257.5t-225 -92.5h-256zM176 75h155q107 0 164.5 73t57.5 202t-57.5 202t-164.5 73h-155v-550z" />
    <glyph glyph-name="dcaron" unicode="&#x10f;" horiz-adv-x="608" 
d="M39 262q0 127 60.5 200.5t157.5 73.5q59 0 105 -29t72 -81v310h88v-736h-81v114q-25 -60 -73 -93t-111 -33q-97 0 -157.5 73.5t-60.5 200.5zM584 583v153h67v-54l-33 -99h-34zM126 262q0 -93 42 -149t114 -56t114.5 56t42.5 149t-42.5 149t-114.5 56t-114 -56t-42 -149z
" />
    <glyph glyph-name="Dcroat" unicode="&#x110;" horiz-adv-x="704" 
d="M354 700q146 0 226 -92.5t80 -257.5t-80 -257.5t-226 -92.5h-255v317h-68v66h68v317h255zM346 75q107 0 164.5 73.5t57.5 201.5t-57.5 201.5t-164.5 73.5h-155v-242h195v-66h-195v-242h155z" />
    <glyph glyph-name="dcroat" unicode="&#x111;" horiz-adv-x="591" 
d="M583 647v-46h-61v-601h-81v114q-25 -60 -73 -93t-111 -33q-97 0 -157.5 73.5t-60.5 200.5t60.5 200.5t157.5 73.5q59 0 105 -29t72 -81v175h-188v46h188v89h88v-89h61zM282 57q72 0 114.5 56t42.5 149t-42.5 149t-114.5 56t-114 -56t-42 -149t42 -149t114 -56z" />
    <glyph glyph-name="Emacron" unicode="&#x112;" horiz-adv-x="609" 
d="M155 772v62h304v-62h-304zM84 0v700h468v-73h-376v-236h298v-70h-298v-248h390v-73h-482z" />
    <glyph glyph-name="emacron" unicode="&#x113;" horiz-adv-x="559" 
d="M135 627v61h284v-61h-284zM39 262q0 134 67.5 204t179.5 70q115 0 175.5 -71t60.5 -216v-12h-395q5 -90 49.5 -137.5t116.5 -47.5q102 0 139 90l83 -5q-21 -70 -78 -109.5t-144 -39.5q-117 0 -185.5 69.5t-68.5 204.5zM128 295h307q-1 82 -41.5 129.5t-107.5 47.5
q-66 0 -109 -45.5t-49 -131.5z" />
    <glyph glyph-name="Edotaccent" unicode="&#x116;" horiz-adv-x="609" 
d="M258 764v97h99v-97h-99zM84 0v700h468v-73h-376v-236h298v-70h-298v-248h390v-73h-482z" />
    <glyph glyph-name="edotaccent" unicode="&#x117;" horiz-adv-x="559" 
d="M231 610v112h92v-112h-92zM39 262q0 134 67.5 204t179.5 70q115 0 175.5 -71t60.5 -216v-12h-395q5 -90 49.5 -137.5t116.5 -47.5q102 0 139 90l83 -5q-21 -70 -78 -109.5t-144 -39.5q-117 0 -185.5 69.5t-68.5 204.5zM128 295h307q-1 82 -41.5 129.5t-107.5 47.5
q-66 0 -109 -45.5t-49 -131.5z" />
    <glyph glyph-name="Eogonek" unicode="&#x118;" horiz-adv-x="609" 
d="M548 0q-34 -21 -53.5 -35.5t-36 -36.5t-16.5 -45q0 -38 35 -38q41 0 50 51l37 -10q-18 -82 -99 -82q-37 0 -60 19t-23 55q0 43 30 70.5t83 51.5h-411v700h468v-73h-376v-236h298v-70h-298v-248h390v-73h-18z" />
    <glyph glyph-name="eogonek" unicode="&#x119;" horiz-adv-x="559" 
d="M522 249v-12h-395q5 -90 49.5 -137.5t116.5 -47.5q102 0 139 90l83 -5q-21 -75 -85 -114q-85 -55 -112 -82t-27 -58q0 -38 35 -38q41 0 50 51l37 -10q-8 -39 -34 -60.5t-65 -21.5q-37 0 -60 19t-23 55q0 66 91 111q-10 -1 -29 -1q-117 0 -185.5 69.5t-68.5 204.5
q0 134 67.5 204t179.5 70q115 0 175.5 -71t60.5 -216zM128 295h307q-1 82 -41.5 129.5t-107.5 47.5q-66 0 -109 -45.5t-49 -131.5z" />
    <glyph glyph-name="Ecaron" unicode="&#x11a;" horiz-adv-x="609" 
d="M392 879h67l-100 -117h-104l-99 117h66l85 -88zM84 0v700h468v-73h-376v-236h298v-70h-298v-248h390v-73h-482z" />
    <glyph glyph-name="ecaron" unicode="&#x11b;" horiz-adv-x="559" 
d="M355 732h65l-94 -143h-98l-94 143h65l78 -110zM39 262q0 134 67.5 204t179.5 70q115 0 175.5 -71t60.5 -216v-12h-395q5 -90 49.5 -137.5t116.5 -47.5q102 0 139 90l83 -5q-21 -70 -78 -109.5t-144 -39.5q-117 0 -185.5 69.5t-68.5 204.5zM128 295h307q-1 82 -41.5 129.5
t-107.5 47.5q-66 0 -109 -45.5t-49 -131.5z" />
    <glyph glyph-name="Gbreve" unicode="&#x11e;" horiz-adv-x="678" 
d="M429 885h55q-2 -57 -38.5 -91.5t-106.5 -34.5t-106.5 34.5t-38.5 91.5h55q8 -71 90 -71t90 71zM44 350q0 162 78.5 262t222.5 100q111 0 184.5 -58.5t90.5 -158.5l-87 -8q-14 68 -65.5 109t-122.5 41q-69 0 -117.5 -41t-70 -104.5t-21.5 -141.5q0 -125 62 -206t177 -81
q90 0 172 41v188h-191v64h275v-302q-130 -66 -259 -66q-159 0 -243.5 99.5t-84.5 262.5z" />
    <glyph glyph-name="gbreve" unicode="&#x11f;" horiz-adv-x="587" 
d="M380 731h53q-2 -63 -37 -100.5t-103 -37.5t-103.5 37.5t-37.5 100.5h53q6 -83 88 -83q81 0 87 83zM39 273q0 119 61.5 191t159.5 72q60 0 106.5 -29.5t70.5 -82.5v100h81v-486q0 -129 -55.5 -189.5t-174.5 -60.5q-99 0 -156 42.5t-60 127.5h81q3 -51 38.5 -77t96.5 -26
q76 0 109 40.5t33 119.5v95q-53 -100 -170 -100q-98 0 -159.5 72t-61.5 191zM126 271q0 -87 43 -140.5t113 -53.5q71 0 114 53.5t43 140.5t-43 141.5t-114 54.5q-70 0 -113 -54.5t-43 -141.5z" />
    <glyph glyph-name="Gdotaccent" unicode="&#x120;" horiz-adv-x="678" 
d="M290 764v97h99v-97h-99zM44 350q0 162 78.5 262t222.5 100q111 0 184.5 -58.5t90.5 -158.5l-87 -8q-14 68 -65.5 109t-122.5 41q-69 0 -117.5 -41t-70 -104.5t-21.5 -141.5q0 -125 62 -206t177 -81q90 0 172 41v188h-191v64h275v-302q-130 -66 -259 -66
q-159 0 -243.5 99.5t-84.5 262.5z" />
    <glyph glyph-name="gdotaccent" unicode="&#x121;" horiz-adv-x="587" 
d="M246 610v112h93v-112h-93zM39 273q0 119 61.5 191t159.5 72q60 0 106.5 -29.5t70.5 -82.5v100h81v-486q0 -129 -55.5 -189.5t-174.5 -60.5q-99 0 -156 42.5t-60 127.5h81q3 -51 38.5 -77t96.5 -26q76 0 109 40.5t33 119.5v95q-53 -100 -170 -100q-98 0 -159.5 72
t-61.5 191zM126 271q0 -87 43 -140.5t113 -53.5q71 0 114 53.5t43 140.5t-43 141.5t-114 54.5q-70 0 -113 -54.5t-43 -141.5z" />
    <glyph glyph-name="Gcommaaccent" unicode="&#x122;" horiz-adv-x="678" 
d="M44 350q0 162 78.5 262t222.5 100q111 0 184.5 -58.5t90.5 -158.5l-87 -8q-14 68 -65.5 109t-122.5 41q-69 0 -117.5 -41t-70 -104.5t-21.5 -141.5q0 -125 62 -206t177 -81q90 0 172 41v188h-191v64h275v-302q-130 -66 -259 -66q-159 0 -243.5 99.5t-84.5 262.5z
M309 -214v161h80v-57l-41 -104h-39z" />
    <glyph glyph-name="gcommaaccent" unicode="&#x123;" horiz-adv-x="587" 
d="M333 775v-161h-81v58l42 103h39zM39 273q0 119 61.5 191t159.5 72q60 0 106.5 -29.5t70.5 -82.5v100h81v-486q0 -129 -55.5 -189.5t-174.5 -60.5q-99 0 -156 42.5t-60 127.5h81q3 -51 38.5 -77t96.5 -26q76 0 109 40.5t33 119.5v95q-53 -100 -170 -100q-98 0 -159.5 72
t-61.5 191zM126 271q0 -87 43 -140.5t113 -53.5q71 0 114 53.5t43 140.5t-43 141.5t-114 54.5q-70 0 -113 -54.5t-43 -141.5z" />
    <glyph glyph-name="Hbar" unicode="&#x126;" horiz-adv-x="713" 
d="M697 581v-55h-68v-526h-92v318h-361v-318h-92v526h-68v55h68v119h92v-119h361v119h92v-119h68zM537 394v132h-361v-132h361z" />
    <glyph glyph-name="hbar" unicode="&#x127;" horiz-adv-x="581" 
d="M338 536q87 0 133 -47.5t46 -142.5v-346h-88v318q0 146 -121 146q-72 0 -111 -46.5t-39 -126.5v-291h-88v601h-61v46h61v89h88v-89h187v-46h-187v-164q51 99 180 99z" />
    <glyph glyph-name="Imacron" unicode="&#x12a;" horiz-adv-x="261" 
d="M-22 772v62h305v-62h-305zM84 0v700h92v-700h-92z" />
    <glyph glyph-name="imacron" unicode="&#x12b;" horiz-adv-x="226" 
d="M-9 627v61h244v-61h-244zM69 0v524h88v-524h-88z" />
    <glyph glyph-name="Iogonek" unicode="&#x12e;" horiz-adv-x="261" 
d="M165 -104l37 -10q-8 -39 -34 -60.5t-65 -21.5q-37 0 -60 19.5t-23 57.5q0 41 27.5 68.5t76.5 50.5h-40v700h92v-700q-96 -60 -96 -115q0 -40 35 -40q41 0 50 51z" />
    <glyph glyph-name="iogonek" unicode="&#x12f;" horiz-adv-x="227" 
d="M159 722v-112h-93v112h93zM145 -104l37 -10q-8 -39 -34 -60.5t-65 -21.5q-37 0 -59.5 19.5t-22.5 57.5q0 41 27 68.5t76 50.5h-35v524h88v-524q-97 -60 -97 -115q0 -40 35 -40q41 0 50 51z" />
    <glyph glyph-name="Idotaccent" unicode="&#x130;" horiz-adv-x="261" 
d="M81 764v97h99v-97h-99zM84 0v700h92v-700h-92z" />
    <glyph glyph-name="dotlessi" unicode="&#x131;" horiz-adv-x="233" 
d="M73 0v524h87v-524h-87z" />
    <glyph glyph-name="Kcommaaccent" unicode="&#x136;" horiz-adv-x="668" 
d="M359 360l286 -360h-110l-247 318h-112v-318h-92v700h92v-310h111l232 310h106zM290 -214v161h80v-57l-41 -104h-39z" />
    <glyph glyph-name="kcommaaccent" unicode="&#x137;" horiz-adv-x="545" 
d="M294 272l240 -272h-109l-196 231h-72v-231h-88v736h88v-436h74l185 224h106zM234 -214v161h80v-57l-41 -104h-39z" />
    <glyph glyph-name="Lacute" unicode="&#x139;" horiz-adv-x="548" 
d="M92 763l89 116h92l-110 -116h-71zM84 0v700h92v-625h339v-75h-431z" />
    <glyph glyph-name="lacute" unicode="&#x13a;" horiz-adv-x="226" 
d="M72 799l89 116h92l-110 -116h-71zM69 736h88v-736h-88v736z" />
    <glyph glyph-name="Lcommaaccent" unicode="&#x13b;" horiz-adv-x="548" 
d="M84 0v700h92v-625h339v-75h-431zM234 -214v161h81v-57l-42 -104h-39z" />
    <glyph glyph-name="lcommaaccent" unicode="&#x13c;" horiz-adv-x="226" 
d="M69 736h88v-736h-88v736zM73 -214v161h80v-57l-42 -104h-38z" />
    <glyph glyph-name="Lcaron" unicode="&#x13d;" horiz-adv-x="548" 
d="M84 0v700h92v-625h339v-75h-431zM272 547v153h67v-54l-33 -99h-34z" />
    <glyph glyph-name="lcaron" unicode="&#x13e;" horiz-adv-x="243" 
d="M69 736h88v-736h-88v736zM219 583v153h66v-54l-33 -99h-33z" />
    <glyph glyph-name="Ldot" unicode="&#x13f;" horiz-adv-x="548" 
d="M84 0v700h92v-625h339v-75h-431zM297 307v115h102v-115h-102z" />
    <glyph glyph-name="ldot" unicode="&#x140;" horiz-adv-x="333" 
d="M69 736h88v-736h-88v736zM222 252v115h101v-115h-101z" />
    <glyph glyph-name="Lslash" unicode="&#x141;" horiz-adv-x="579" 
d="M207 75h339v-75h-431v282l-85 -35v61l85 35v357h92v-319l195 81v-61l-195 -81v-245z" />
    <glyph glyph-name="lslash" unicode="&#x142;" horiz-adv-x="257" 
d="M225 490v-65l-53 -49v-376h-88v294l-52 -48v65l52 49v376h88v-294z" />
    <glyph glyph-name="Nacute" unicode="&#x143;" horiz-adv-x="724" 
d="M503 879l-111 -116h-70l88 116h93zM551 700h89v-700h-155l-312 645v-645h-89v700h155l312 -645v645z" />
    <glyph glyph-name="nacute" unicode="&#x144;" horiz-adv-x="580" 
d="M238 592l79 143h92l-101 -143h-70zM69 0v524h81v-101q48 113 187 113q87 0 133 -47.5t46 -142.5v-346h-88v318q0 146 -121 146q-72 0 -111 -46.5t-39 -126.5v-291h-88z" />
    <glyph glyph-name="Ncommaaccent" unicode="&#x145;" horiz-adv-x="724" 
d="M551 700h89v-700h-155l-312 645v-645h-89v700h155l312 -645v645zM322 -214v161h81v-57l-42 -104h-39z" />
    <glyph glyph-name="ncommaaccent" unicode="&#x146;" horiz-adv-x="580" 
d="M69 0v524h81v-101q48 113 187 113q87 0 133 -47.5t46 -142.5v-346h-88v318q0 146 -121 146q-72 0 -111 -46.5t-39 -126.5v-291h-88zM249 -214v161h80v-57l-41 -104h-39z" />
    <glyph glyph-name="Ncaron" unicode="&#x147;" horiz-adv-x="724" 
d="M414 762h-104l-99 117h66l85 -88l85 88h67zM551 700h89v-700h-155l-312 645v-645h-89v700h155l312 -645v645z" />
    <glyph glyph-name="ncaron" unicode="&#x148;" horiz-adv-x="580" 
d="M367 732h65l-94 -143h-98l-94 143h65l78 -110zM69 0v524h81v-101q48 113 187 113q87 0 133 -47.5t46 -142.5v-346h-88v318q0 146 -121 146q-72 0 -111 -46.5t-39 -126.5v-291h-88z" />
    <glyph glyph-name="Eng" unicode="&#x14a;" horiz-adv-x="724" 
d="M551 700h89v-740q0 -174 -186 -174q-25 0 -71 4v73q21 -4 51 -4q117 0 117 111v30h-66l-312 645v-645h-89v700h155l312 -645v645z" />
    <glyph glyph-name="eng" unicode="&#x14b;" horiz-adv-x="580" 
d="M69 0v524h81v-101q48 113 187 113q87 0 133 -47.5t46 -142.5v-431q0 -69 -28 -98t-94 -29q-22 0 -68 4v70q32 -2 40 -2q35 0 48.5 16t13.5 62v380q0 146 -121 146q-72 0 -111 -46.5t-39 -126.5v-291h-88z" />
    <glyph glyph-name="Omacron" unicode="&#x14c;" horiz-adv-x="713" 
d="M204 772v62h305v-62h-305zM44 350q0 162 81.5 262t230.5 100q150 0 231.5 -100t81.5 -262t-81.5 -262t-231.5 -100q-149 0 -230.5 100t-81.5 262zM136 350q0 -126 58 -206.5t162 -80.5q105 0 163 80.5t58 206.5t-58 206.5t-163 80.5q-104 0 -162 -80.5t-58 -206.5z" />
    <glyph glyph-name="omacron" unicode="&#x14d;" horiz-adv-x="573" 
d="M144 627v61h285v-61h-285zM39 262q0 127 67.5 200.5t180.5 73.5t180 -73.5t67 -200.5t-67 -200.5t-180 -73.5t-180.5 73.5t-67.5 200.5zM126 262q0 -93 43.5 -149t117.5 -56q73 0 116.5 56t43.5 149t-43.5 149t-116.5 56q-74 0 -117.5 -56t-43.5 -149z" />
    <glyph glyph-name="Ohungarumlaut" unicode="&#x150;" horiz-adv-x="713" 
d="M222 763l79 116h80l-87 -116h-72zM382 763l79 116h79l-87 -116h-71zM44 350q0 162 81.5 262t230.5 100q150 0 231.5 -100t81.5 -262t-81.5 -262t-231.5 -100q-149 0 -230.5 100t-81.5 262zM136 350q0 -126 58 -206.5t162 -80.5q105 0 163 80.5t58 206.5t-58 206.5
t-163 80.5q-104 0 -162 -80.5t-58 -206.5z" />
    <glyph glyph-name="ohungarumlaut" unicode="&#x151;" horiz-adv-x="573" 
d="M166 592l74 143h71l-80 -143h-65zM309 592l74 143h71l-80 -143h-65zM39 262q0 127 67.5 200.5t180.5 73.5t180 -73.5t67 -200.5t-67 -200.5t-180 -73.5t-180.5 73.5t-67.5 200.5zM126 262q0 -93 43.5 -149t117.5 -56q73 0 116.5 56t43.5 149t-43.5 149t-116.5 56
q-74 0 -117.5 -56t-43.5 -149z" />
    <glyph glyph-name="OE" unicode="&#x152;" horiz-adv-x="1017" 
d="M44 350q0 165 80 257.5t226 92.5h610v-73h-375v-236h297v-70h-297v-248h389v-73h-624q-146 0 -226 92.5t-80 257.5zM136 350q0 -128 57.5 -201.5t164.5 -73.5h135v550h-135q-107 0 -164.5 -73.5t-57.5 -201.5z" />
    <glyph glyph-name="oe" unicode="&#x153;" horiz-adv-x="967" 
d="M930 249v-12h-395q5 -90 49.5 -137.5t116.5 -47.5q104 0 139 90l83 -5q-20 -70 -76.5 -109.5t-142.5 -39.5q-158 0 -214 131q-57 -131 -206 -131q-111 0 -178 73.5t-67 200.5t67 200.5t178 73.5q149 0 206 -131q54 131 207 131q113 0 173 -71.5t60 -215.5zM536 295h308
q-2 82 -42.5 129.5t-107.5 47.5q-66 0 -108.5 -45.5t-49.5 -131.5zM287 57q73 0 116.5 56t43.5 149t-43.5 149t-116.5 56q-74 0 -117.5 -56t-43.5 -149t43.5 -149t117.5 -56z" />
    <glyph glyph-name="Racute" unicode="&#x154;" horiz-adv-x="661" 
d="M471 879l-110 -116h-71l89 116h92zM634 0h-111l-205 288h-142v-288h-92v700h286q102 0 169 -51.5t67 -156.5q0 -93 -52.5 -143t-138.5 -59zM176 358h184q71 0 112.5 34t41.5 100t-41.5 100t-112.5 34h-184v-268z" />
    <glyph glyph-name="racute" unicode="&#x155;" horiz-adv-x="398" 
d="M154 592l79 143h91l-101 -143h-69zM307 534q22 0 58 -6v-80q-33 6 -68 6q-71 0 -105.5 -46t-34.5 -142v-266h-88l1 524h80v-108q20 57 60.5 87.5t96.5 30.5z" />
    <glyph glyph-name="Rcommaaccent" unicode="&#x156;" horiz-adv-x="661" 
d="M415 290l219 -290h-111l-205 288h-142v-288h-92v700h286q102 0 169 -51.5t67 -156.5q0 -93 -52.5 -143t-138.5 -59zM176 358h184q71 0 112.5 34t41.5 100t-41.5 100t-112.5 34h-184v-268zM291 -214v161h80v-57l-41 -104h-39z" />
    <glyph glyph-name="rcommaaccent" unicode="&#x157;" horiz-adv-x="398" 
d="M307 534q22 0 58 -6v-80q-33 6 -68 6q-71 0 -105.5 -46t-34.5 -142v-266h-88l1 524h80v-108q20 57 60.5 87.5t96.5 30.5zM73 -214v161h81v-57l-42 -104h-39z" />
    <glyph glyph-name="Rcaron" unicode="&#x158;" horiz-adv-x="661" 
d="M383 762h-104l-100 117h67l85 -88l85 88h67zM634 0h-111l-205 288h-142v-288h-92v700h286q102 0 169 -51.5t67 -156.5q0 -93 -52.5 -143t-138.5 -59zM176 358h184q71 0 112.5 34t41.5 100t-41.5 100t-112.5 34h-184v-268z" />
    <glyph glyph-name="rcaron" unicode="&#x159;" horiz-adv-x="398" 
d="M283 732h65l-94 -143h-98l-94 143h65l78 -110zM307 534q22 0 58 -6v-80q-33 6 -68 6q-71 0 -105.5 -46t-34.5 -142v-266h-88l1 524h80v-108q20 57 60.5 87.5t96.5 30.5z" />
    <glyph glyph-name="Sacute" unicode="&#x15a;" horiz-adv-x="605" 
d="M261 763l89 116h92l-110 -116h-71zM33 215l86 3q3 -75 50 -116t138 -41q72 0 119 28t47 88q0 42 -28 69t-94 49l-144 46q-150 48 -150 183q0 94 66 141t167 47q109 0 178 -54t76 -150l-85 -6q-4 62 -48 99.5t-122 37.5q-66 0 -103 -28.5t-37 -80.5q0 -81 110 -115
l144 -46q82 -26 122 -70t40 -116q0 -97 -69 -146t-190 -49q-129 0 -198.5 58.5t-74.5 168.5z" />
    <glyph glyph-name="sacute" unicode="&#x15b;" horiz-adv-x="496" 
d="M193 592l79 143h92l-101 -143h-70zM25 149l80 4q10 -101 142 -101q60 0 95 21t35 60q0 29 -23.5 48t-77.5 36l-113 33q-122 36 -122 144q0 72 52.5 107t139.5 35q92 0 151.5 -38.5t66.5 -116.5l-80 -5q-6 48 -43.5 72t-94.5 24q-48 2 -77 -18.5t-29 -56.5q0 -57 85 -82
l114 -33q138 -39 138 -145q0 -72 -58 -110.5t-161 -38.5q-207 0 -220 161z" />
    <glyph glyph-name="Scedilla" unicode="&#x15e;" horiz-adv-x="605" 
d="M565 183q0 -96 -68.5 -145t-187.5 -50l-29 -51q24 12 49 12q31 0 56.5 -19.5t25.5 -57.5q0 -41 -28.5 -60.5t-68.5 -19.5q-39 0 -65 18t-33 51l43 3q7 -34 48 -34q46 0 46 42q0 21 -12.5 32t-31.5 11q-16 0 -40 -11l-37 16l38 69q-112 8 -172 66t-65 160l86 3
q3 -75 50 -116t138 -41q72 0 119 28t47 88q0 42 -28 69t-94 49l-144 46q-150 48 -150 183q0 94 66 141t167 47q109 0 178 -54t76 -150l-85 -6q-4 62 -48 99.5t-122 37.5q-66 0 -103 -28.5t-37 -80.5q0 -81 110 -115l144 -46q82 -26 122 -70t40 -116z" />
    <glyph glyph-name="scedilla" unicode="&#x15f;" horiz-adv-x="496" 
d="M464 137q0 -70 -56.5 -108.5t-156.5 -40.5l-28 -51q22 12 48 12q32 0 57 -19.5t25 -57.5q0 -41 -28.5 -60.5t-68.5 -19.5q-39 0 -65 18t-33 51l43 3q7 -34 48 -34q47 0 47 42q0 21 -13 32t-31 11q-17 0 -41 -11l-37 16l38 69q-175 13 -187 160l80 4q10 -101 142 -101
q60 0 95 21t35 60q0 29 -23.5 48t-77.5 36l-113 33q-122 36 -122 144q0 72 52.5 107t139.5 35q92 0 151.5 -38.5t66.5 -116.5l-80 -5q-6 48 -43.5 72t-94.5 24q-48 2 -77 -18.5t-29 -56.5q0 -57 85 -82l114 -33q138 -39 138 -145z" />
    <glyph glyph-name="Scaron" unicode="&#x160;" horiz-adv-x="605" 
d="M387 879h67l-100 -117h-104l-100 117h67l85 -88zM33 215l86 3q3 -75 50 -116t138 -41q72 0 119 28t47 88q0 42 -28 69t-94 49l-144 46q-150 48 -150 183q0 94 66 141t167 47q109 0 178 -54t76 -150l-85 -6q-4 62 -48 99.5t-122 37.5q-66 0 -103 -28.5t-37 -80.5
q0 -81 110 -115l144 -46q82 -26 122 -70t40 -116q0 -97 -69 -146t-190 -49q-129 0 -198.5 58.5t-74.5 168.5z" />
    <glyph glyph-name="scaron" unicode="&#x161;" horiz-adv-x="496" 
d="M322 732h65l-94 -143h-98l-94 143h65l78 -110zM25 149l80 4q10 -101 142 -101q60 0 95 21t35 60q0 29 -23.5 48t-77.5 36l-113 33q-122 36 -122 144q0 72 52.5 107t139.5 35q92 0 151.5 -38.5t66.5 -116.5l-80 -5q-6 48 -43.5 72t-94.5 24q-48 2 -77 -18.5t-29 -56.5
q0 -57 85 -82l114 -33q138 -39 138 -145q0 -72 -58 -110.5t-161 -38.5q-207 0 -220 161z" />
    <glyph glyph-name="uni0162" unicode="&#x162;" horiz-adv-x="580" 
d="M336 0h-30l-35 -63q22 12 48 12q32 0 57 -19.5t25 -57.5q0 -41 -28.5 -60.5t-68.5 -19.5q-39 0 -65 18t-33 51l43 3q7 -34 48 -34q47 0 47 42q0 21 -13 32t-31 11q-17 0 -41 -11l-37 16l44 80h-22v625h-219v75h530v-75h-219v-625z" />
    <glyph glyph-name="uni0163" unicode="&#x163;" horiz-adv-x="378" 
d="M273 -51q32 0 57 -19.5t25 -57.5q0 -41 -28.5 -60.5t-67.5 -19.5t-65.5 18t-33.5 51l44 3q7 -34 48 -34q46 0 46 42q0 21 -13 32t-31 11q-17 0 -41 -11l-36 16l41 76q-48 10 -69 43t-21 98v320h-110v65h84q32 0 32 31v86h82v-115h128v-67h-128v-306q0 -50 14 -68.5
t53 -18.5q26 0 61 5v-70q-35 -7 -77 -7h-11l-31 -55q24 12 48 12z" />
    <glyph glyph-name="Tcaron" unicode="&#x164;" horiz-adv-x="580" 
d="M375 879h67l-100 -117h-104l-99 117h66l85 -88zM25 625v75h530v-75h-219v-625h-92v625h-219z" />
    <glyph glyph-name="tcaron" unicode="&#x165;" horiz-adv-x="377" 
d="M277 583v153h66v-54l-33 -99h-33zM344 457h-128v-306q0 -50 14 -68.5t53 -18.5q26 0 61 5v-70q-35 -7 -77 -7q-76 0 -107.5 33t-31.5 112v320h-110v65h84q32 0 32 31v86h82v-115h128v-67z" />
    <glyph glyph-name="Tbar" unicode="&#x166;" horiz-adv-x="580" 
d="M555 625h-219v-197h148v-56h-148v-372h-92v372h-148v56h148v197h-219v75h530v-75z" />
    <glyph glyph-name="tbar" unicode="&#x167;" horiz-adv-x="378" 
d="M344 457h-128v-139h120v-61h-120v-106q0 -50 14 -68.5t53 -18.5q26 0 61 5v-70q-35 -7 -77 -7q-76 0 -107.5 33t-31.5 112v120h-96v61h96v139h-110v65h84q32 0 32 31v86h82v-115h128v-67z" />
    <glyph glyph-name="Umacron" unicode="&#x16a;" horiz-adv-x="717" 
d="M207 772v62h304v-62h-304zM84 263v437h92v-429q0 -106 45.5 -157t137.5 -51t137 50.5t45 157.5v429h92v-437q0 -139 -67.5 -207t-206.5 -68q-275 0 -275 275z" />
    <glyph glyph-name="umacron" unicode="&#x16b;" horiz-adv-x="580" 
d="M148 627v61h285v-61h-285zM423 524h88v-524h-81v108q-50 -120 -187 -120q-85 0 -132 50t-47 147v339h87v-313q0 -151 122 -151q71 0 110.5 51t39.5 132v281z" />
    <glyph glyph-name="Uring" unicode="&#x16e;" horiz-adv-x="717" 
d="M359 936q42 0 72.5 -24.5t30.5 -70.5t-30.5 -70t-72.5 -24t-73 24t-31 70t31 70.5t73 24.5zM359 789q23 0 39.5 14.5t16.5 37.5q0 24 -16 38t-40 14t-40.5 -14t-16.5 -38q0 -23 16.5 -37.5t40.5 -14.5zM84 263v437h92v-429q0 -106 45.5 -157t137.5 -51t137 50.5t45 157.5
v429h92v-437q0 -139 -67.5 -207t-206.5 -68q-275 0 -275 275z" />
    <glyph glyph-name="uring" unicode="&#x16f;" horiz-adv-x="580" 
d="M291 782q42 0 72.5 -24.5t30.5 -71.5q0 -48 -30.5 -72.5t-72.5 -24.5t-72.5 24.5t-30.5 72.5q0 47 30.5 71.5t72.5 24.5zM291 631q24 0 40 15t16 40t-16.5 39.5t-39.5 14.5q-24 0 -40.5 -14.5t-16.5 -39.5t16.5 -40t40.5 -15zM423 524h88v-524h-81v108
q-50 -120 -187 -120q-85 0 -132 50t-47 147v339h87v-313q0 -151 122 -151q71 0 110.5 51t39.5 132v281z" />
    <glyph glyph-name="Uhungarumlaut" unicode="&#x170;" horiz-adv-x="717" 
d="M225 763l79 116h79l-87 -116h-71zM384 763l79 116h79l-87 -116h-71zM84 263v437h92v-429q0 -106 45.5 -157t137.5 -51t137 50.5t45 157.5v429h92v-437q0 -139 -67.5 -207t-206.5 -68q-275 0 -275 275z" />
    <glyph glyph-name="uhungarumlaut" unicode="&#x171;" horiz-adv-x="580" 
d="M171 592l73 143h71l-79 -143h-65zM314 592l73 143h71l-79 -143h-65zM423 524h88v-524h-81v108q-50 -120 -187 -120q-85 0 -132 50t-47 147v339h87v-313q0 -151 122 -151q71 0 110.5 51t39.5 132v281z" />
    <glyph glyph-name="Uogonek" unicode="&#x172;" horiz-adv-x="717" 
d="M541 700h92v-437q0 -221 -174 -264q-49 -30 -76.5 -57t-27.5 -59q0 -38 35 -38q41 0 50 51l37 -10q-18 -82 -99 -82q-37 0 -60 19t-23 55q0 64 89 111q-8 -1 -25 -1q-275 0 -275 275v437h92v-429q0 -106 45.5 -157t137.5 -51t137 50.5t45 157.5v429z" />
    <glyph glyph-name="uogonek" unicode="&#x173;" horiz-adv-x="580" 
d="M489 -104l38 -10q-18 -82 -99 -82q-37 0 -60 19t-23 55q0 43 30 70.5t83 51.5h-28v108q-50 -120 -187 -120q-85 0 -132 50t-47 147v339h87v-313q0 -151 122 -151q71 0 110.5 51t39.5 132v281h88v-524q-34 -21 -53.5 -35.5t-36.5 -36.5t-17 -45q0 -38 36 -38q41 0 49 51z
" />
    <glyph glyph-name="Wcircumflex" unicode="&#x174;" horiz-adv-x="961" 
d="M481 853l-85 -88h-66l99 117h104l100 -117h-67zM839 700h96l-176 -700h-137l-141 635l-144 -635h-138l-173 700h99l147 -632l144 632h132l142 -632z" />
    <glyph glyph-name="wcircumflex" unicode="&#x175;" horiz-adv-x="847" 
d="M423 702l-78 -110h-65l94 143h98l94 -143h-65zM728 524h95l-159 -524h-123l-116 479l-118 -479h-126l-158 524h98l127 -462l117 462h122l114 -454z" />
    <glyph glyph-name="Ycircumflex" unicode="&#x176;" horiz-adv-x="654" 
d="M327 853l-85 -88h-66l99 117h104l100 -117h-67zM536 700h102l-265 -411v-289h-92v288l-264 412h105l205 -338z" />
    <glyph glyph-name="ycircumflex" unicode="&#x177;" horiz-adv-x="546" 
d="M273 702l-78 -110h-65l94 143h98l94 -143h-65zM432 524h94l-195 -584q-27 -87 -64 -119.5t-112 -32.5q-25 0 -58 3v68q36 -2 53 -2q41 0 62 20t39 76l15 47h-49l-198 524h96l172 -489z" />
    <glyph glyph-name="Ydieresis" unicode="&#x178;" horiz-adv-x="654" 
d="M277 860v-95h-89v95h89zM467 860v-95h-89v95h89zM536 700h102l-265 -411v-289h-92v288l-264 412h105l205 -338z" />
    <glyph glyph-name="Zacute" unicode="&#x179;" horiz-adv-x="576" 
d="M428 879l-110 -116h-70l88 116h92zM134 75h415v-75h-528v64l405 561h-383v75h496v-64z" />
    <glyph glyph-name="zacute" unicode="&#x17a;" horiz-adv-x="480" 
d="M189 592l79 143h92l-101 -143h-70zM133 69h321v-69h-433v61l315 394h-295v69h406v-61z" />
    <glyph glyph-name="Zdotaccent" unicode="&#x17b;" horiz-adv-x="576" 
d="M338 861v-97h-99v97h99zM134 75h415v-75h-528v64l405 561h-383v75h496v-64z" />
    <glyph glyph-name="zdotaccent" unicode="&#x17c;" horiz-adv-x="480" 
d="M194 610v112h92v-112h-92zM133 69h321v-69h-433v61l315 394h-295v69h406v-61z" />
    <glyph glyph-name="Zcaron" unicode="&#x17d;" horiz-adv-x="576" 
d="M340 762h-104l-99 117h66l85 -88l85 88h67zM134 75h415v-75h-528v64l405 561h-383v75h496v-64z" />
    <glyph glyph-name="zcaron" unicode="&#x17e;" horiz-adv-x="480" 
d="M318 732h65l-94 -143h-98l-94 143h65l78 -110zM133 69h321v-69h-433v61l315 394h-295v69h406v-61z" />
    <glyph glyph-name="Scommaaccent" unicode="&#x218;" horiz-adv-x="605" 
d="M33 215l86 3q3 -75 50 -116t138 -41q72 0 119 28t47 88q0 42 -28 69t-94 49l-144 46q-150 48 -150 183q0 94 66 141t167 47q109 0 178 -54t76 -150l-85 -6q-4 62 -48 99.5t-122 37.5q-66 0 -103 -28.5t-37 -80.5q0 -81 110 -115l144 -46q82 -26 122 -70t40 -116
q0 -97 -69 -146t-190 -49q-129 0 -198.5 58.5t-74.5 168.5zM262 -214v161h80v-57l-41 -104h-39z" />
    <glyph glyph-name="scommaaccent" unicode="&#x219;" horiz-adv-x="496" 
d="M25 149l80 4q10 -101 142 -101q60 0 95 21t35 60q0 29 -23.5 48t-77.5 36l-113 33q-122 36 -122 144q0 72 52.5 107t139.5 35q92 0 151.5 -38.5t66.5 -116.5l-80 -5q-6 48 -43.5 72t-94.5 24q-48 2 -77 -18.5t-29 -56.5q0 -57 85 -82l114 -33q138 -39 138 -145
q0 -72 -58 -110.5t-161 -38.5q-207 0 -220 161zM204 -214v161h80v-57l-41 -104h-39z" />
    <glyph glyph-name="uni021A" unicode="&#x21a;" horiz-adv-x="580" 
d="M25 625v75h530v-75h-219v-625h-92v625h-219zM250 -214v161h80v-57l-41 -104h-39z" />
    <glyph glyph-name="uni021B" unicode="&#x21b;" horiz-adv-x="378" 
d="M344 457h-128v-306q0 -50 14 -68.5t53 -18.5q26 0 61 5v-70q-35 -7 -77 -7q-76 0 -107.5 33t-31.5 112v320h-110v65h84q32 0 32 31v86h82v-115h128v-67zM206 -214v161h81v-57l-42 -104h-39z" />
    <glyph glyph-name="circumflex" unicode="&#x2c6;" horiz-adv-x="366" 
d="M40 592l94 143h98l94 -143h-65l-78 110l-78 -110h-65z" />
    <glyph glyph-name="caron" unicode="&#x2c7;" horiz-adv-x="366" 
d="M40 732h65l78 -110l78 110h65l-94 -143h-98z" />
    <glyph glyph-name="breve" unicode="&#x2d8;" horiz-adv-x="361" 
d="M40 731h53q6 -83 87 -83q80 0 88 83h53q-2 -63 -37.5 -100.5t-103.5 -37.5t-103 37.5t-37 100.5z" />
    <glyph glyph-name="dotaccent" unicode="&#x2d9;" horiz-adv-x="173" 
d="M40 610v112h93v-112h-93z" />
    <glyph glyph-name="ring" unicode="&#x2da;" horiz-adv-x="287" 
d="M40 686q0 47 30.5 71.5t72.5 24.5t73 -24.5t31 -71.5q0 -48 -31 -72.5t-73 -24.5t-72.5 24.5t-30.5 72.5zM87 686q0 -25 16 -40t40 -15t40.5 15t16.5 40t-16.5 39.5t-40.5 14.5q-23 0 -39.5 -14.5t-16.5 -39.5z" />
    <glyph glyph-name="ogonek" unicode="&#x2db;" horiz-adv-x="262" 
d="M40 -122q0 43 30 70.5t83 51.5h53q-34 -21 -53.5 -35.5t-36.5 -36.5t-17 -45q0 -38 36 -38q41 0 49 51l38 -10q-18 -82 -99 -82q-37 0 -60 19t-23 55z" />
    <glyph glyph-name="tilde" unicode="&#x2dc;" horiz-adv-x="384" 
d="M40 605q0 101 83 101q36 0 76 -28t58 -28q36 0 36 48h51q0 -101 -82 -101q-36 0 -76.5 28t-58.5 28q-36 0 -36 -48h-51z" />
    <glyph glyph-name="hungarumlaut" unicode="&#x2dd;" horiz-adv-x="368" 
d="M40 592l74 143h70l-79 -143h-65zM183 592l74 143h71l-80 -143h-65z" />
    <glyph glyph-name="pi" unicode="&#x3c0;" horiz-adv-x="609" 
d="M570 458h-80v-328q0 -38 12 -51t33 -13q6 0 34 2v-70q-40 -4 -58 -4q-55 0 -79.5 25.5t-24.5 87.5v351h-212v-458h-86v458h-80v66h541v-66z" />
    <glyph glyph-name="uni0401" unicode="&#x401;" horiz-adv-x="609" 
d="M168 765v95h89v-95h-89zM358 765v95h89v-95h-89zM84 0v700h468v-73h-376v-236h298v-70h-298v-248h390v-73h-482z" />
    <glyph glyph-name="uni0404" unicode="&#x404;" horiz-adv-x="667" 
d="M544 228l88 -6q-17 -106 -89.5 -170t-190.5 -64q-147 0 -227.5 100.5t-80.5 261.5q0 162 78.5 262t221.5 100q113 0 188 -59.5t93 -161.5l-88 -8q-13 69 -66.5 111.5t-126.5 42.5q-92 0 -144.5 -69.5t-61.5 -176.5h278v-70h-279q7 -114 63 -186t152 -72q78 0 128.5 46.5
t63.5 118.5z" />
    <glyph glyph-name="uni0406" unicode="&#x406;" horiz-adv-x="261" 
d="M84 0v700h92v-700h-92z" />
    <glyph glyph-name="uni0407" unicode="&#x407;" horiz-adv-x="261" 
d="M12 765v95h80v-95h-80zM169 765v95h80v-95h-80zM84 0v700h92v-700h-92z" />
    <glyph glyph-name="uni040E" unicode="&#x40e;" horiz-adv-x="643" 
d="M323 759q-70 0 -106.5 34t-38.5 92h59q3 -31 23 -53t63 -22q77 0 86 75h59q-2 -58 -38.5 -92t-106.5 -34zM524 700h101l-220 -537q-39 -97 -80 -133t-103 -36q-34 0 -83 6v71q36 -4 63 -4q36 0 59.5 18t44.5 71l12 30h-40l-255 514h104l220 -467z" />
    <glyph glyph-name="uni0410" unicode="&#x410;" horiz-adv-x="668" 
d="M554 0l-62 184h-318l-63 -184h-92l245 700h140l245 -700h-95zM333 650l-135 -396h269z" />
    <glyph glyph-name="uni0411" unicode="&#x411;" horiz-adv-x="644" 
d="M364 409q104 0 172 -50t68 -154t-68 -154.5t-172 -50.5h-280v700h470v-72h-378v-219h188zM357 72q73 0 114 34t41 99t-41 99.5t-114 34.5h-181v-267h181z" />
    <glyph glyph-name="uni0412" unicode="&#x412;" horiz-adv-x="663" 
d="M413 359q94 -6 150 -50.5t56 -124.5q0 -87 -64.5 -135.5t-171.5 -48.5h-299v700h295q100 0 160.5 -44.5t60.5 -130.5q0 -74 -48 -116.5t-139 -49.5zM176 628v-237h201q61 0 96 32t35 88t-36.5 86.5t-100.5 30.5h-195zM376 72q72 0 111.5 32t39.5 91t-38.5 92.5
t-108.5 33.5h-204v-249h200z" />
    <glyph glyph-name="uni0413" unicode="&#x413;" horiz-adv-x="543" 
d="M84 0v700h431v-75h-339v-625h-92z" />
    <glyph glyph-name="uni0414" unicode="&#x414;" horiz-adv-x="657" 
d="M579 75h62v-239h-86v164h-459v-164h-86v239h49q36 78 54.5 231.5t27.5 393.5h438v-625zM487 75v550h-262q-13 -245 -33 -370q-16 -104 -47 -180h342z" />
    <glyph glyph-name="uni0415" unicode="&#x415;" horiz-adv-x="609" 
d="M84 0v700h468v-73h-376v-236h298v-70h-298v-248h390v-73h-482z" />
    <glyph glyph-name="uni0416" unicode="&#x416;" horiz-adv-x="1010" 
d="M987 0h-109l-231 318h-98v-318h-90v318h-96l-232 -318h-109l269 360l-259 340h106l224 -310h97v310h90v-310h99l224 310h105l-258 -340z" />
    <glyph glyph-name="uni0417" unicode="&#x417;" horiz-adv-x="608" 
d="M347 359q102 -6 160 -51.5t58 -127.5q0 -92 -70.5 -142t-190.5 -50q-253 0 -273 219l87 5q14 -152 186 -152q80 0 124.5 33.5t44.5 98.5q0 62 -42.5 95.5t-126.5 33.5h-89v70h88q73 0 112 32.5t39 90.5q0 61 -40 93.5t-109 32.5q-70 0 -117.5 -34.5t-54.5 -106.5l-87 7
q10 104 79 155t180 51q108 0 174.5 -46.5t66.5 -135.5q0 -76 -50.5 -120t-148.5 -51z" />
    <glyph glyph-name="uni0418" unicode="&#x418;" horiz-adv-x="728" 
d="M500 700h144v-700h-90v636l-326 -636h-144v700h91v-636z" />
    <glyph glyph-name="uni0419" unicode="&#x419;" horiz-adv-x="728" 
d="M364 759q-70 0 -106.5 34t-38.5 92h59q9 -75 86 -75q43 0 63 22t23 53h59q-2 -58 -38.5 -92t-106.5 -34zM500 700h144v-700h-90v636l-326 -636h-144v700h91v-636z" />
    <glyph glyph-name="uni041A" unicode="&#x41a;" horiz-adv-x="668" 
d="M645 0h-110l-247 318h-112v-318h-92v700h92v-310h111l232 310h106l-266 -340z" />
    <glyph glyph-name="uni041B" unicode="&#x41b;" horiz-adv-x="695" 
d="M155 700h455v-700h-92v625h-279q-11 -323 -13 -350q-13 -187 -61 -243q-32 -38 -86 -38q-15 0 -61 4v74q32 -2 41 -2q15 0 27.5 9t21 29t15 43.5t10.5 62t7 73.5t5 88.5t3 97.5t3 110t4 117z" />
    <glyph glyph-name="uni041C" unicode="&#x41c;" horiz-adv-x="905" 
d="M661 700h159v-700h-89l1 648l-217 -648h-126l-216 646v-646h-89v700h161l208 -648z" />
    <glyph glyph-name="uni041D" unicode="&#x41d;" horiz-adv-x="713" 
d="M537 700h92v-700h-92v318h-361v-318h-92v700h92v-306h361v306z" />
    <glyph glyph-name="uni041E" unicode="&#x41e;" horiz-adv-x="713" 
d="M44 350q0 162 81.5 262t230.5 100q150 0 231.5 -100t81.5 -262t-81.5 -262t-231.5 -100q-149 0 -230.5 100t-81.5 262zM136 350q0 -126 58 -206.5t162 -80.5q105 0 163 80.5t58 206.5t-58 206.5t-163 80.5q-104 0 -162 -80.5t-58 -206.5z" />
    <glyph glyph-name="uni041F" unicode="&#x41f;" horiz-adv-x="709" 
d="M625 700v-700h-92v625h-357v-625h-92v700h541z" />
    <glyph glyph-name="uni0420" unicode="&#x420;" horiz-adv-x="638" 
d="M84 0v700h278q102 0 169 -52t67 -160q0 -107 -65.5 -157.5t-168.5 -50.5h-188v-280h-92zM176 351h176q71 0 112.5 34t41.5 103t-41.5 103t-112.5 34h-176v-274z" />
    <glyph glyph-name="uni0421" unicode="&#x421;" horiz-adv-x="665" 
d="M44 350q0 162 78.5 262t221.5 100q116 0 190 -62.5t88 -168.5l-87 -9q-10 75 -63 120t-128 45q-101 0 -154.5 -82.5t-53.5 -204.5q0 -125 56.5 -206t159.5 -81q80 0 130 49.5t60 126.5l87 -7q-13 -110 -84.5 -177t-192.5 -67q-148 0 -228 99t-80 263z" />
    <glyph glyph-name="uni0422" unicode="&#x422;" horiz-adv-x="580" 
d="M25 625v75h530v-75h-219v-625h-92v625h-219z" />
    <glyph glyph-name="uni0423" unicode="&#x423;" horiz-adv-x="643" 
d="M524 700h101l-220 -537q-39 -97 -80 -133t-103 -36q-34 0 -83 6v71q36 -4 63 -4q36 0 59.5 18t44.5 71l12 30h-40l-255 514h104l220 -467z" />
    <glyph glyph-name="uni0424" unicode="&#x424;" horiz-adv-x="837" 
d="M478 651q144 0 231 -72.5t87 -211.5q0 -138 -87 -210.5t-231 -72.5h-15v-84h-89v84h-16q-143 0 -230 72.5t-87 210.5q0 139 87 211.5t230 72.5h16v61h89v-61h15zM364 156h10v423h-10q-103 0 -167 -54t-64 -158q0 -103 64 -157t167 -54zM473 156q103 0 167 54t64 157
q0 104 -64 158t-167 54h-10v-423h10z" />
    <glyph glyph-name="uni0425" unicode="&#x425;" horiz-adv-x="650" 
d="M27 0l244 356l-226 344h108l171 -271l173 271h102l-224 -340l246 -360h-107l-192 287l-193 -287h-102z" />
    <glyph glyph-name="uni0426" unicode="&#x426;" horiz-adv-x="703" 
d="M84 0v700h92v-625h357v625h92v-625h61v-239h-85v164h-517z" />
    <glyph glyph-name="uni0427" unicode="&#x427;" horiz-adv-x="664" 
d="M487 700h92v-700h-92v304q-99 -32 -200 -32q-226 0 -226 213v215h92v-199q0 -83 39 -118.5t122 -35.5q88 0 173 33v320z" />
    <glyph glyph-name="uni0428" unicode="&#x428;" horiz-adv-x="987" 
d="M84 0v700h91v-625h273v625h91v-625h273v625h91v-700h-819z" />
    <glyph glyph-name="uni0429" unicode="&#x429;" horiz-adv-x="980" 
d="M84 0v700h91v-625h273v625h91v-625h273v625h91v-625h61v-239h-86v164h-794z" />
    <glyph glyph-name="uni042A" unicode="&#x42a;" horiz-adv-x="725" 
d="M454 417q103 0 169.5 -51.5t66.5 -156.5q0 -106 -67 -157.5t-169 -51.5h-272v625h-160v75h252v-283h180zM444 75q70 0 112 33.5t42 100.5t-42 100.5t-112 33.5h-170v-268h170z" />
    <glyph glyph-name="uni042B" unicode="&#x42b;" horiz-adv-x="846" 
d="M342 417q103 0 169.5 -51.5t66.5 -156.5q0 -106 -67 -157.5t-169 -51.5h-258v700h92v-283h166zM669 700h92v-700h-92v700zM332 75q71 0 112.5 33.5t41.5 100.5t-41.5 100.5t-112.5 33.5h-156v-268h156z" />
    <glyph glyph-name="uni042C" unicode="&#x42c;" horiz-adv-x="627" 
d="M356 417q103 0 169.5 -51.5t66.5 -156.5q0 -106 -67 -157.5t-169 -51.5h-272v700h92v-283h180zM346 75q71 0 112.5 33.5t41.5 100.5t-41.5 100.5t-112.5 33.5h-170v-268h170z" />
    <glyph glyph-name="uni042D" unicode="&#x42d;" horiz-adv-x="667" 
d="M323 712q143 0 221.5 -100t78.5 -262q0 -161 -80.5 -261.5t-227.5 -100.5q-118 0 -190.5 64t-89.5 170l88 6q13 -72 64 -118.5t128 -46.5q96 0 152.5 72t62.5 186h-278v70h277q-9 107 -61.5 176.5t-144.5 69.5q-72 0 -126 -42.5t-67 -111.5l-88 8q18 102 93.5 161.5
t187.5 59.5z" />
    <glyph glyph-name="uni042E" unicode="&#x42e;" horiz-adv-x="959" 
d="M610 712q150 0 227.5 -98.5t77.5 -263.5t-77.5 -263.5t-227.5 -98.5q-142 0 -219 89t-84 241h-131v-318h-92v700h92v-306h131q10 146 87 232t216 86zM610 63q104 0 158.5 79t54.5 208t-54.5 208t-158.5 79q-102 0 -157 -79t-55 -208t55 -208t157 -79z" />
    <glyph glyph-name="uni042F" unicode="&#x42f;" horiz-adv-x="661" 
d="M577 700v-700h-92v288h-162l-185 -288h-110l201 291q-82 11 -132 61t-50 140q0 105 67 156.5t169 51.5h294zM485 358v268h-192q-71 0 -112.5 -34t-41.5 -100t41.5 -100t112.5 -34h192z" />
    <glyph glyph-name="uni0430" unicode="&#x430;" horiz-adv-x="554" 
d="M41 137q0 141 206 161l156 15v50q0 49 -31.5 79.5t-92.5 29.5q-56 0 -92 -25.5t-39 -76.5h-81q3 85 61 125.5t151 40.5q103 0 157 -49t54 -141v-346h-80v108q-25 -57 -76 -88.5t-124 -31.5q-84 0 -126.5 41.5t-42.5 107.5zM128 140q0 -39 27 -64t81 -25q77 0 122 48.5
t45 125.5v32l-146 -15q-129 -12 -129 -102z" />
    <glyph glyph-name="uni0431" unicode="&#x431;" horiz-adv-x="579" 
d="M308 508q104 0 168 -70t64 -190q0 -121 -66.5 -190.5t-180.5 -69.5q-248 0 -248 333q0 175 49 267t160 115q21 5 43.5 8.5t48 6.5t38.5 5q66 10 104 25v-69q-27 -17 -93 -27q-15 -2 -46 -6t-52 -7q-41 -5 -69.5 -18.5t-55.5 -43t-43 -85.5t-21 -139q21 73 72.5 114
t127.5 41zM293 57q74 0 117 51.5t43 139.5t-43 139.5t-117 51.5q-75 0 -118 -51.5t-43 -139.5t43 -139.5t118 -51.5z" />
    <glyph glyph-name="uni0432" unicode="&#x432;" horiz-adv-x="545" 
d="M351 270q154 -14 154 -128q0 -62 -45 -102t-144 -40h-247v524h235q91 0 138 -36t47 -96q0 -102 -138 -122zM157 458v-162h140q53 0 78.5 22t25.5 59q0 81 -109 81h-135zM306 66q111 0 111 87q0 85 -116 85h-144v-172h149z" />
    <glyph glyph-name="uni0433" unicode="&#x433;" horiz-adv-x="442" 
d="M69 0v524h346v-72h-258v-452h-88z" />
    <glyph glyph-name="uni0434" unicode="&#x434;" horiz-adv-x="557" 
d="M476 72h61v-213h-83v141h-359v-141h-83v213h39q12 26 20.5 62.5t15 113.5t9 113.5t9.5 162.5h371v-452zM388 72v380h-207q-18 -257 -29 -319q-7 -36 -16 -61h252z" />
    <glyph glyph-name="uni0435" unicode="&#x435;" horiz-adv-x="559" 
d="M39 262q0 134 67.5 204t179.5 70q115 0 175.5 -71t60.5 -216v-12h-395q5 -90 49.5 -137.5t116.5 -47.5q102 0 139 90l83 -5q-21 -70 -78 -109.5t-144 -39.5q-117 0 -185.5 69.5t-68.5 204.5zM128 295h307q-1 82 -41.5 129.5t-107.5 47.5q-66 0 -109 -45.5t-49 -131.5z
" />
    <glyph glyph-name="uni0436" unicode="&#x436;" horiz-adv-x="806" 
d="M795 0h-108l-176 231h-65v-231h-86v231h-65l-176 -231h-108l218 272l-210 252h104l169 -224h68v224h86v-224h68l169 224h104l-210 -252z" />
    <glyph glyph-name="uni0437" unicode="&#x437;" horiz-adv-x="519" 
d="M319 271q160 -17 160 -133q0 -67 -52 -108.5t-169 -41.5q-217 0 -231 171l84 4q10 -108 147 -108q66 0 99.5 25.5t33.5 69.5q0 88 -143 88h-66v58h62q66 0 98.5 23.5t32.5 61.5q0 40 -32 64t-85 24q-54 0 -89.5 -26t-40.5 -77l-85 5q6 83 64 124t151 41
q100 0 152.5 -37.5t52.5 -100.5q0 -107 -144 -127z" />
    <glyph glyph-name="uni0438" unicode="&#x438;" horiz-adv-x="598" 
d="M398 524h131v-524h-84v461l-244 -461h-132v524h85v-461z" />
    <glyph glyph-name="uni0439" unicode="&#x439;" horiz-adv-x="598" 
d="M299 594q-68 0 -103 36.5t-37 97.5h59q3 -34 22 -58t59 -24q73 0 82 82h59q-2 -61 -37.5 -97.5t-103.5 -36.5zM398 524h131v-524h-84v461l-244 -461h-132v524h85v-461z" />
    <glyph glyph-name="uni043A" unicode="&#x43a;" horiz-adv-x="545" 
d="M534 0h-109l-196 231h-72v-231h-88v524h88v-224h74l185 224h106l-228 -252z" />
    <glyph glyph-name="uni043B" unicode="&#x43b;" horiz-adv-x="559" 
d="M122 524h368v-524h-88v452h-202q-3 -43 -8 -119q-4 -74 -6.5 -107t-8.5 -82t-14 -69t-22 -43.5t-34 -31t-48 -7.5q-15 0 -43 4v70q10 -1 24 -1q22 0 35 19t21.5 75.5t11.5 99.5t8 149q4 74 6 115z" />
    <glyph glyph-name="uni043C" unicode="&#x43c;" horiz-adv-x="765" 
d="M550 524h146v-524h-85v463l-174 -463h-110l-173 463v-463h-85v524h147l167 -476z" />
    <glyph glyph-name="uni043D" unicode="&#x43d;" horiz-adv-x="584" 
d="M69 0v524h88v-221h271v221h87v-524h-87v231h-271v-231h-88z" />
    <glyph glyph-name="uni043E" unicode="&#x43e;" horiz-adv-x="573" 
d="M39 262q0 127 67.5 200.5t180.5 73.5t180 -73.5t67 -200.5t-67 -200.5t-180 -73.5t-180.5 73.5t-67.5 200.5zM126 262q0 -93 43.5 -149t117.5 -56q73 0 116.5 56t43.5 149t-43.5 149t-116.5 56q-74 0 -117.5 -56t-43.5 -149z" />
    <glyph glyph-name="uni043F" unicode="&#x43f;" horiz-adv-x="578" 
d="M69 0v524h440v-524h-87v452h-265v-452h-88z" />
    <glyph glyph-name="uni0440" unicode="&#x440;" horiz-adv-x="591" 
d="M69 -200v724h81v-112q24 59 72.5 91.5t111.5 32.5q98 0 158 -73t60 -201t-60 -201t-158 -73q-59 0 -105 29t-72 83v-300h-88zM152 262q0 -93 42.5 -149t114.5 -56t114 56t42 149t-42 149t-114 56t-114.5 -56t-42.5 -149z" />
    <glyph glyph-name="uni0441" unicode="&#x441;" horiz-adv-x="542" 
d="M39 262q0 131 65 202.5t176 71.5q90 0 151.5 -48t73.5 -137l-84 -8q-10 61 -48.5 92.5t-92.5 31.5q-70 0 -112 -54.5t-42 -150.5t42.5 -150.5t113.5 -54.5q56 0 94.5 33.5t49.5 95.5l84 -7q-12 -91 -74 -141t-154 -50q-113 0 -178 71t-65 203z" />
    <glyph glyph-name="uni0442" unicode="&#x442;" horiz-adv-x="488" 
d="M23 452v72h442v-72h-177v-452h-88v452h-177z" />
    <glyph glyph-name="uni0443" unicode="&#x443;" horiz-adv-x="546" 
d="M432 524h94l-195 -584q-27 -87 -64 -119.5t-112 -32.5q-25 0 -58 3v68q36 -2 53 -2q41 0 62 20t39 76l15 47h-49l-198 524h96l172 -489z" />
    <glyph glyph-name="uni0444" unicode="&#x444;" horiz-adv-x="722" 
d="M411 536q126 0 198 -72.5t72 -201.5t-72 -201.5t-198 -72.5h-7v-188h-85v188h-6q-127 0 -200 72.5t-73 201.5t73 201.5t200 72.5h6v200h85v-200h7zM315 57h4v410h-4q-87 0 -138 -54t-51 -151t51 -151t138 -54zM408 57q87 0 137.5 54t50.5 151t-50.5 151t-137.5 54h-4
v-410h4z" />
    <glyph glyph-name="uni0445" unicode="&#x445;" horiz-adv-x="554" 
d="M532 0h-107l-150 205l-150 -205h-102l201 264l-192 260h106l139 -198l139 198h102l-189 -257z" />
    <glyph glyph-name="uni0446" unicode="&#x446;" horiz-adv-x="591" 
d="M69 0v524h88v-452h265v452h87v-452h62v-213h-83v141h-419z" />
    <glyph glyph-name="uni0447" unicode="&#x447;" horiz-adv-x="551" 
d="M395 524h87v-524h-87v218q-99 -21 -165 -21q-180 0 -180 176v151h88v-139q0 -62 29.5 -89t92.5 -27q54 0 135 22v233z" />
    <glyph glyph-name="uni0448" unicode="&#x448;" horiz-adv-x="854" 
d="M69 0v524h86v-452h229v452h86v-452h229v452h86v-524h-716z" />
    <glyph glyph-name="uni0449" unicode="&#x449;" horiz-adv-x="867" 
d="M69 0v524h86v-452h229v452h86v-452h229v452h86v-452h62v-213h-83v141h-695z" />
    <glyph glyph-name="uni044A" unicode="&#x44a;" horiz-adv-x="610" 
d="M375 323q200 0 200 -161q0 -162 -200 -162h-185h-42v452h-125v72h213v-201h139zM368 67q119 0 119 96q0 94 -119 94h-132v-190h132z" />
    <glyph glyph-name="uni044B" unicode="&#x44b;" horiz-adv-x="723" 
d="M284 323q199 0 199 -161q0 -162 -199 -162h-173h-42v524h88v-201h127zM566 524h88v-524h-88v524zM277 67q119 0 119 96q0 94 -119 94h-120v-190h120z" />
    <glyph glyph-name="uni044C" unicode="&#x44c;" horiz-adv-x="531" 
d="M296 323q199 0 199 -161q0 -162 -199 -162h-185h-42v524h88v-201h139zM289 67q119 0 119 96q0 94 -119 94h-132v-190h132z" />
    <glyph glyph-name="uni044D" unicode="&#x44d;" horiz-adv-x="540" 
d="M261 536q111 0 175.5 -71.5t64.5 -202.5q0 -132 -65 -203t-178 -71q-89 0 -150 47t-76 134l85 6q13 -58 50.5 -89t90.5 -31q67 0 108.5 48t47.5 134h-204v60h203q-7 82 -48 127t-104 45q-51 0 -89 -29.5t-50 -84.5l-85 6q15 84 76 129.5t148 45.5z" />
    <glyph glyph-name="uni044E" unicode="&#x44e;" horiz-adv-x="785" 
d="M505 536q112 0 176.5 -71.5t64.5 -202.5t-64.5 -202.5t-176.5 -71.5q-105 0 -169 63.5t-72 179.5h-107v-231h-88v524h88v-221h108q10 112 73.5 172.5t166.5 60.5zM505 57q71 0 112.5 54.5t41.5 150.5t-41.5 150.5t-112.5 54.5t-113 -54.5t-42 -150.5t42 -150.5t113 -54.5
z" />
    <glyph glyph-name="uni044F" unicode="&#x44f;" horiz-adv-x="546" 
d="M241 524h236v-524h-89v216h-114l-139 -216h-105l157 220q-67 11 -103 49.5t-36 100.5q0 74 50.5 114t142.5 40zM388 274v183h-136q-55 0 -85.5 -24.5t-30.5 -67.5q0 -42 30.5 -66.5t85.5 -24.5h136z" />
    <glyph glyph-name="uni0451" unicode="&#x451;" horiz-adv-x="559" 
d="M151 610v106h81v-106h-81zM322 610v106h81v-106h-81zM39 262q0 134 67.5 204t179.5 70q115 0 175.5 -71t60.5 -216v-12h-395q5 -90 49.5 -137.5t116.5 -47.5q102 0 139 90l83 -5q-21 -70 -78 -109.5t-144 -39.5q-117 0 -185.5 69.5t-68.5 204.5zM128 295h307
q-1 82 -41.5 129.5t-107.5 47.5q-66 0 -109 -45.5t-49 -131.5z" />
    <glyph glyph-name="uni0454" unicode="&#x454;" horiz-adv-x="540" 
d="M424 175l85 -6q-15 -87 -76.5 -134t-150.5 -47q-113 0 -178 71t-65 203q0 131 65 202.5t176 71.5q87 0 147.5 -45.5t75.5 -129.5l-84 -6q-12 55 -50 84.5t-89 29.5q-63 0 -104 -45t-48 -127h203v-60h-204q5 -86 46.5 -134t108.5 -48q53 0 91 31t51 89z" />
    <glyph glyph-name="uni0456" unicode="&#x456;" horiz-adv-x="228" 
d="M68 610v112h92v-112h-92zM70 0v524h88v-524h-88z" />
    <glyph glyph-name="uni0457" unicode="&#x457;" horiz-adv-x="220" 
d="M-1 610v106h76v-106h-76zM146 610v106h75v-106h-75zM66 0v524h88v-524h-88z" />
    <glyph glyph-name="uni045E" unicode="&#x45e;" horiz-adv-x="546" 
d="M273 594q-68 0 -103.5 36.5t-37.5 97.5h59q9 -82 82 -82q40 0 59 24t22 58h59q-2 -61 -37 -97.5t-103 -36.5zM432 524h94l-195 -584q-27 -87 -64 -119.5t-112 -32.5q-25 0 -58 3v68q36 -2 53 -2q41 0 62 20t39 76l15 47h-49l-198 524h96l172 -489z" />
    <glyph glyph-name="uni0490" unicode="&#x490;" horiz-adv-x="549" 
d="M84 0v700h345v169h86v-244h-339v-625h-92z" />
    <glyph glyph-name="uni0491" unicode="&#x491;" horiz-adv-x="446" 
d="M69 0v524h264v146h82v-218h-258v-452h-88z" />
    <glyph glyph-name="uni04C1" unicode="&#x4c1;" horiz-adv-x="1010" 
d="M505 759q-70 0 -106.5 34t-38.5 92h59q3 -31 23 -53t63 -22t63 22t23 53h59q-2 -58 -38.5 -92t-106.5 -34zM987 0h-109l-231 318h-98v-318h-90v318h-96l-232 -318h-109l269 360l-259 340h106l224 -310h97v310h90v-310h99l224 310h105l-258 -340z" />
    <glyph glyph-name="uni04C2" unicode="&#x4c2;" horiz-adv-x="806" 
d="M403 594q-68 0 -103 36.5t-37 97.5h59q3 -34 22 -58t59 -24q73 0 82 82h58q-2 -61 -37 -97.5t-103 -36.5zM795 0h-108l-176 231h-65v-231h-86v231h-65l-176 -231h-108l218 272l-210 252h104l169 -224h68v224h86v-224h68l169 224h104l-210 -252z" />
    <glyph glyph-name="Wgrave" unicode="&#x1e80;" horiz-adv-x="961" 
d="M522 763h-71l-110 116h92zM839 700h96l-176 -700h-137l-141 635l-144 -635h-138l-173 700h99l147 -632l144 632h132l142 -632z" />
    <glyph glyph-name="wgrave" unicode="&#x1e81;" horiz-adv-x="847" 
d="M474 592h-69l-101 143h91zM728 524h95l-159 -524h-123l-116 479l-118 -479h-126l-158 524h98l127 -462l117 462h122l114 -454z" />
    <glyph glyph-name="Wacute" unicode="&#x1e82;" horiz-adv-x="961" 
d="M621 879l-110 -116h-71l89 116h92zM839 700h96l-176 -700h-137l-141 635l-144 -635h-138l-173 700h99l147 -632l144 632h132l142 -632z" />
    <glyph glyph-name="wacute" unicode="&#x1e83;" horiz-adv-x="847" 
d="M543 735l-101 -143h-70l79 143h92zM728 524h95l-159 -524h-123l-116 479l-118 -479h-126l-158 524h98l127 -462l117 462h122l114 -454z" />
    <glyph glyph-name="Wdieresis" unicode="&#x1e84;" horiz-adv-x="961" 
d="M431 860v-95h-89v95h89zM621 860v-95h-89v95h89zM839 700h96l-176 -700h-137l-141 635l-144 -635h-138l-173 700h99l147 -632l144 632h132l142 -632z" />
    <glyph glyph-name="wdieresis" unicode="&#x1e85;" horiz-adv-x="847" 
d="M378 716v-106h-80v106h80zM549 716v-106h-81v106h81zM728 524h95l-159 -524h-123l-116 479l-118 -479h-126l-158 524h98l127 -462l117 462h122l114 -454z" />
    <glyph glyph-name="uni1E9E" unicode="&#x1e9e;" horiz-adv-x="651" 
d="M540 354q71 -57 71 -159q0 -99 -63.5 -151t-170.5 -52q-45 0 -82 8v70q40 -6 64 -6q70 0 115 35.5t45 105.5q0 68 -42.5 102t-112.5 34q-32 0 -77 -9v68l170 228h-159q-62 0 -97 -38.5t-35 -116.5v-473h-92v485q0 215 231 215h251v-61l-184 -239q105 3 168 -46z" />
    <glyph glyph-name="Ygrave" unicode="&#x1ef2;" horiz-adv-x="654" 
d="M368 763h-70l-111 116h92zM536 700h102l-265 -411v-289h-92v288l-264 412h105l205 -338z" />
    <glyph glyph-name="ygrave" unicode="&#x1ef3;" horiz-adv-x="546" 
d="M324 592h-70l-101 143h92zM432 524h94l-195 -584q-27 -87 -64 -119.5t-112 -32.5q-25 0 -58 3v68q36 -2 53 -2q41 0 62 20t39 76l15 47h-49l-198 524h96l172 -489z" />
    <glyph glyph-name="endash" unicode="&#x2013;" horiz-adv-x="551" 
d="M57 332h437v-68h-437v68z" />
    <glyph glyph-name="emdash" unicode="&#x2014;" horiz-adv-x="680" 
d="M57 332h566v-68h-566v68z" />
    <glyph glyph-name="quoteleft" unicode="&#x2018;" horiz-adv-x="193" 
d="M135 712v-210h-87v65l49 145h38z" />
    <glyph glyph-name="quoteright" unicode="&#x2019;" horiz-adv-x="193" 
d="M58 490v210h87v-65l-49 -145h-38z" />
    <glyph glyph-name="quotesinglbase" unicode="&#x201a;" horiz-adv-x="193" 
d="M58 -95v210h87v-65l-49 -145h-38z" />
    <glyph glyph-name="quotedblleft" unicode="&#x201c;" horiz-adv-x="343" 
d="M135 712v-210h-87v65l49 145h38zM285 712v-210h-87v65l48 145h39z" />
    <glyph glyph-name="quotedblright" unicode="&#x201d;" horiz-adv-x="343" 
d="M58 490v210h87v-65l-49 -145h-38zM208 490v210h87v-65l-49 -145h-38z" />
    <glyph glyph-name="quotedblbase" unicode="&#x201e;" horiz-adv-x="343" 
d="M58 -95v210h87v-65l-49 -145h-38zM208 -95v210h87v-65l-49 -145h-38z" />
    <glyph glyph-name="dagger" unicode="&#x2020;" horiz-adv-x="426" 
d="M374 524v-66h-120v-513h-82v513h-120v66h120v176h82v-176h120z" />
    <glyph glyph-name="daggerdbl" unicode="&#x2021;" horiz-adv-x="434" 
d="M378 458h-120v-261h120v-66h-120v-186h-82v186h-120v66h120v261h-120v66h120v176h82v-176h120v-66z" />
    <glyph glyph-name="bullet" unicode="&#x2022;" horiz-adv-x="379" 
d="M189 211q-47 0 -76 29t-29 75q0 45 29.5 74.5t75.5 29.5t76 -29.5t30 -74.5q0 -46 -30 -75t-76 -29z" />
    <glyph glyph-name="ellipsis" unicode="&#x2026;" horiz-adv-x="631" 
d="M64 0v115h101v-115h-101zM265 0v115h102v-115h-102zM466 0v115h102v-115h-102z" />
    <glyph glyph-name="perthousand" unicode="&#x2030;" horiz-adv-x="1146" 
d="M31 538q0 79 43 123.5t117 44.5t117 -44.5t43 -123.5t-43 -124.5t-117 -45.5t-117 45.5t-43 124.5zM123 0l475 700h60l-474 -700h-61zM95 538q0 -55 25 -86t71 -31q44 0 70 31t26 86q0 54 -25.5 84.5t-70.5 30.5q-46 0 -71 -30t-25 -85zM431 163q0 78 42.5 123.5
t116.5 45.5q75 0 118 -45.5t43 -123.5t-43 -123.5t-118 -45.5q-74 0 -116.5 45.5t-42.5 123.5zM804 163q0 78 42.5 123.5t116.5 45.5q75 0 117.5 -45.5t42.5 -123.5t-42.5 -123.5t-117.5 -45.5q-74 0 -116.5 45.5t-42.5 123.5zM494 163q0 -54 25.5 -85.5t70.5 -31.5
t70.5 31.5t25.5 85.5t-25.5 85.5t-70.5 31.5t-70.5 -31.5t-25.5 -85.5zM867 163q0 -54 25.5 -85.5t70.5 -31.5t70.5 31.5t25.5 85.5t-25.5 85.5t-70.5 31.5t-70.5 -31.5t-25.5 -85.5z" />
    <glyph glyph-name="guilsinglleft" unicode="&#x2039;" horiz-adv-x="284" 
d="M241 456l-142 -176l142 -176h-88l-122 155v42l122 155h88z" />
    <glyph glyph-name="guilsinglright" unicode="&#x203a;" horiz-adv-x="284" 
d="M130 456l123 -155v-42l-123 -155h-87l141 176l-141 176h87z" />
    <glyph glyph-name="fraction" unicode="&#x2044;" horiz-adv-x="165" 
d="M-189 0l475 700h68l-475 -700h-68z" />
    <glyph glyph-name="uni2070" unicode="&#x2070;" horiz-adv-x="444" 
d="M45 548q0 105 46 165t131 60t131 -60t46 -165t-46 -165t-131 -60t-131 60t-46 165zM115 548q0 -80 28.5 -124t78.5 -44t78.5 44t28.5 124t-28.5 124t-78.5 44t-78.5 -44t-28.5 -124z" />
    <glyph glyph-name="uni2074" unicode="&#x2074;" horiz-adv-x="431" 
d="M332 487h74v-57h-74v-97h-70v97h-239v53l195 281h114v-277zM92 487h170v242z" />
    <glyph glyph-name="uni2075" unicode="&#x2075;" horiz-adv-x="400" 
d="M219 614q66 0 106 -36t40 -103q0 -71 -46 -110t-120 -39q-67 0 -113 32t-55 90l68 4q6 -34 34 -51.5t66 -17.5q42 0 69 23.5t27 68.5q0 46 -27 69t-70 23q-62 0 -94 -44l-62 5l19 236h279v-57h-226l-11 -135q42 42 116 42z" />
    <glyph glyph-name="uni2076" unicode="&#x2076;" horiz-adv-x="429" 
d="M242 609q65 0 107 -36t42 -103q0 -68 -45.5 -107t-122.5 -39q-178 0 -178 217q0 115 47 174t133 59q65 0 104.5 -32t45.5 -90l-68 -4q-3 31 -24.5 50t-57.5 19q-62 0 -89 -59q-20 -40 -20 -110q38 61 126 61zM223 381q45 0 71.5 24t26.5 65q0 42 -26.5 66.5t-71.5 24.5
q-44 0 -70.5 -24.5t-26.5 -66.5q0 -40 26.5 -64.5t70.5 -24.5z" />
    <glyph glyph-name="uni2077" unicode="&#x2077;" horiz-adv-x="348" 
d="M20 764h314v-48q-130 -188 -170 -383h-75q42 189 176 374h-245v57z" />
    <glyph glyph-name="uni2078" unicode="&#x2078;" horiz-adv-x="423" 
d="M278 559q50 -12 79 -41t29 -72q0 -58 -49.5 -90t-124.5 -32t-125 32t-50 90q0 43 29.5 72t79.5 41q-46 10 -72 36t-26 66q0 54 46.5 83.5t117.5 29.5q70 0 116.5 -29.5t46.5 -83.5q0 -79 -97 -102zM117 651q0 -34 26 -51.5t69 -17.5t68.5 17.5t25.5 51.5t-25.5 52
t-68.5 18t-69 -18t-26 -52zM212 377q48 0 77 20t29 57q0 36 -29 56t-77 20q-49 0 -77.5 -20t-28.5 -56q0 -37 28.5 -57t77.5 -20z" />
    <glyph glyph-name="uni2079" unicode="&#x2079;" horiz-adv-x="429" 
d="M206 774q178 0 178 -217q0 -116 -46 -174.5t-133 -58.5q-65 0 -105 32t-46 90l68 4q4 -31 25.5 -50t57.5 -19q65 0 92 65q17 41 16 107q-37 -62 -127 -62q-64 0 -106 36t-42 101q0 68 45.5 107t122.5 39zM206 540q44 0 70.5 24t26.5 64t-26.5 64.5t-70.5 24.5t-71 -24.5
t-27 -64.5t27 -64t71 -24z" />
    <glyph glyph-name="uni2080" unicode="&#x2080;" horiz-adv-x="444" 
d="M45 98q0 105 46 165t131 60t131 -60t46 -165t-46 -165t-131 -60t-131 60t-46 165zM115 98q0 -80 28.5 -124t78.5 -44t78.5 44t28.5 124t-28.5 124t-78.5 44t-78.5 -44t-28.5 -124z" />
    <glyph glyph-name="uni2081" unicode="&#x2081;" horiz-adv-x="274" 
d="M128 315h58v-431h-71v348l-80 -66v74z" />
    <glyph glyph-name="uni2082" unicode="&#x2082;" horiz-adv-x="361" 
d="M111 -62h224v-57h-317v52l145 139q33 32 48.5 47.5t28.5 38.5t13 45q0 31 -19.5 47.5t-51.5 16.5q-77 0 -86 -101l-68 6q5 76 47 114t107 38q62 0 101.5 -31.5t39.5 -89.5q0 -39 -21.5 -73t-74.5 -83z" />
    <glyph glyph-name="uni2083" unicode="&#x2083;" horiz-adv-x="377" 
d="M292 121q53 -33 53 -104q0 -68 -47.5 -104t-120.5 -36q-70 0 -113.5 33t-50.5 98l68 5q10 -79 96 -79q44 0 70.5 21.5t26.5 61.5q0 37 -24 58.5t-71 21.5q-27 0 -68 -7v48l131 120h-207v57h297v-50l-143 -120q63 0 103 -24z" />
    <glyph glyph-name="uni2084" unicode="&#x2084;" horiz-adv-x="431" 
d="M332 38h74v-57h-74v-97h-70v97h-239v53l195 281h114v-277zM92 38h170v242z" />
    <glyph glyph-name="uni2085" unicode="&#x2085;" horiz-adv-x="400" 
d="M219 165q66 0 106 -36t40 -103q0 -71 -46 -110t-120 -39q-67 0 -113 32t-55 90l68 4q6 -34 34 -51.5t66 -17.5q42 0 69 23.5t27 68.5q0 46 -27 69t-70 23q-62 0 -94 -44l-62 5l19 236h279v-57h-226l-11 -135q42 42 116 42z" />
    <glyph glyph-name="uni2086" unicode="&#x2086;" horiz-adv-x="429" 
d="M242 159q65 0 107 -36t42 -103q0 -68 -45.5 -107t-122.5 -39q-178 0 -178 217q0 115 47 174t133 59q65 0 104.5 -32t45.5 -90l-68 -4q-3 31 -24.5 50t-57.5 19q-62 0 -89 -59q-20 -40 -20 -110q38 61 126 61zM223 -69q45 0 71.5 24t26.5 65q0 42 -26.5 66.5t-71.5 24.5
q-44 0 -70.5 -24.5t-26.5 -66.5q0 -40 26.5 -64.5t70.5 -24.5z" />
    <glyph glyph-name="uni2087" unicode="&#x2087;" horiz-adv-x="348" 
d="M20 315h314v-48q-130 -188 -170 -383h-75q42 189 176 374h-245v57z" />
    <glyph glyph-name="uni2088" unicode="&#x2088;" horiz-adv-x="423" 
d="M278 109q50 -12 79 -41t29 -72q0 -58 -49.5 -90t-124.5 -32t-125 32t-50 90q0 43 29.5 72t79.5 41q-46 10 -72 36t-26 66q0 54 46.5 83.5t117.5 29.5q70 0 116.5 -29.5t46.5 -83.5q0 -79 -97 -102zM117 201q0 -34 26 -51.5t69 -17.5t68.5 17.5t25.5 51.5t-25.5 52
t-68.5 18t-69 -18t-26 -52zM212 -73q48 0 77 20t29 57q0 36 -29 56t-77 20q-49 0 -77.5 -20t-28.5 -56q0 -37 28.5 -57t77.5 -20z" />
    <glyph glyph-name="uni2089" unicode="&#x2089;" horiz-adv-x="429" 
d="M206 324q178 0 178 -217q0 -116 -46 -174.5t-133 -58.5q-65 0 -105 32t-46 90l68 4q4 -31 25.5 -50t57.5 -19q65 0 92 65q17 41 16 107q-37 -62 -127 -62q-64 0 -106 36t-42 101q0 68 45.5 107t122.5 39zM206 90q44 0 70.5 24t26.5 64t-26.5 64.5t-70.5 24.5t-71 -24.5
t-27 -64.5t27 -64t71 -24z" />
    <glyph glyph-name="Euro" unicode="&#x20ac;" horiz-adv-x="643" 
d="M528 212l83 -4q-17 -100 -82.5 -160t-172.5 -60q-117 0 -189.5 75t-91.5 200h-65v47h60q0 5 -0.5 16.5t-0.5 17.5t0.5 17.5t0.5 16.5h-58v47h63q17 126 88 200.5t186 74.5q99 0 166 -52t87 -143l-84 -6q-16 59 -60.5 94t-105.5 35q-77 0 -124.5 -56t-62.5 -147h269v-47
h-275q0 -5 -0.5 -16.5t-0.5 -17.5q0 -12 2 -34h271v-47h-266q16 -92 66 -147.5t127 -55.5q68 0 112.5 42t57.5 110z" />
    <glyph glyph-name="uni20B4" unicode="&#x20b4;" horiz-adv-x="544" 
d="M418 390q-26 -20 -57 -35l-75 -37h232v-40h-308q-71 -43 -71 -111q0 -56 37.5 -82.5t94.5 -26.5q63 0 104.5 31t45.5 97l83 -3q-7 -100 -68.5 -147.5t-163.5 -47.5t-162 45.5t-60 129.5q0 68 44 115h-63v40h111q20 12 48 26l92 46h-251v39h320q49 39 49 96q0 49 -31 77
t-85 28q-20 0 -39.5 -5t-39 -15.5t-33 -32.5t-16.5 -53l-82 5q4 48 25.5 83t53 53.5t64.5 26.5t69 8q88 0 145 -43t57 -128q0 -57 -30 -100h60v-39h-100z" />
    <glyph glyph-name="uni20BD" unicode="&#x20bd;" horiz-adv-x="605" 
d="M344 287h-163v-73h219v-55h-219v-159h-89v159h-65v55h65v73h-65v66h65v335h89h160q97 0 160.5 -50.5t63.5 -152.5q0 -103 -61.5 -150.5t-159.5 -47.5zM181 616v-263h151q66 0 105 33t39 99q0 65 -39 98t-105 33h-151z" />
    <glyph glyph-name="uni2116" unicode="&#x2116;" horiz-adv-x="1160" 
d="M930 333q-82 0 -130.5 51t-48.5 139q0 87 48.5 138t130.5 51q81 0 129.5 -51t48.5 -138t-48.5 -138.5t-129.5 -51.5zM551 55v645h89v-700h-155l-312 645v-645h-89v700h155zM930 652q-48 0 -75.5 -35t-27.5 -94t27.5 -94.5t75.5 -35.5t75.5 35.5t27.5 94.5
q0 58 -27.5 93.5t-75.5 35.5zM764 212v59h331v-59h-331z" />
    <glyph glyph-name="trademark" unicode="&#x2122;" horiz-adv-x="793" 
d="M16 658v42h280v-42h-114v-327h-52v327h-114zM651 700h90v-369h-51v335l-107 -335h-72l-106 333v-333h-52v369h90l105 -339z" />
    <glyph glyph-name="oneeighth" unicode="&#x215b;" horiz-adv-x="771" 
d="M102 340v285l-74 -49v66l87 58h49v-360h-62zM521 700h67l-475 -700h-68zM643 185q44 -9 69.5 -33.5t25.5 -60.5q0 -49 -44 -76t-109 -27t-109 27t-44 76q0 36 26 60.5t70 33.5q-86 18 -86 85q0 46 41 71t102 25t101.5 -24.5t40.5 -71.5q0 -67 -84 -85zM502 262
q0 -27 23 -42t60 -15t59.5 15t22.5 42q0 28 -22.5 42.5t-59.5 14.5t-60 -14.5t-23 -42.5zM585 35q41 0 66.5 16.5t25.5 46.5t-25.5 46.5t-66.5 16.5t-66.5 -16.5t-25.5 -46.5t25.5 -46.5t66.5 -16.5z" />
    <glyph glyph-name="threeeighths" unicode="&#x215c;" horiz-adv-x="871" 
d="M308 448q0 -59 -41.5 -89.5t-108.5 -30.5q-61 0 -100 28t-46 84l61 4q7 -66 85 -66q39 0 63.5 18.5t24.5 51.5q0 30 -22 48t-64 18q-20 0 -61 -6v42l118 100h-185v50h265v-45l-127 -97q64 -2 97 -25q41 -28 41 -85zM621 700h68l-475 -700h-68zM743 185q44 -9 69.5 -33
t25.5 -61q0 -49 -43.5 -76t-108.5 -27q-66 0 -109.5 27t-43.5 76q0 36 25.5 60.5t69.5 33.5q-85 18 -85 85q0 47 40.5 71.5t102.5 24.5q61 0 101.5 -24.5t40.5 -71.5q0 -67 -85 -85zM603 262q0 -27 23 -42t60 -15t59.5 15t22.5 42q0 28 -22.5 42.5t-59.5 14.5t-60 -14.5
t-23 -42.5zM686 35q41 0 66.5 16.5t25.5 46.5t-25.5 46.5t-66.5 16.5q-42 0 -67.5 -16.5t-25.5 -46.5t25.5 -46.5t67.5 -16.5z" />
    <glyph glyph-name="fiveeighths" unicode="&#x215d;" horiz-adv-x="885" 
d="M322 457q0 -61 -40.5 -94t-107.5 -33q-60 0 -101 27t-49 77l58 4q6 -29 30.5 -44.5t61.5 -15.5q39 0 64 20t25 58q0 39 -25 58.5t-64 19.5q-60 0 -88 -37l-52 4l17 201h248v-48h-204l-10 -115q37 39 105 39q59 0 95.5 -31.5t36.5 -89.5zM635 700h67l-474 -700h-68z
M757 185q44 -9 69.5 -33t25.5 -61q0 -49 -43.5 -76t-108.5 -27q-66 0 -109.5 27t-43.5 76q0 36 25.5 60.5t69.5 33.5q-85 18 -85 85q0 47 40.5 71.5t102.5 24.5q61 0 101.5 -24.5t40.5 -71.5q0 -67 -85 -85zM617 262q0 -27 23 -42t60 -15t59.5 15t22.5 42q0 28 -22.5 42.5
t-59.5 14.5t-60 -14.5t-23 -42.5zM700 35q41 0 66.5 16.5t25.5 46.5t-25.5 46.5t-66.5 16.5q-42 0 -67.5 -16.5t-25.5 -46.5t25.5 -46.5t67.5 -16.5z" />
    <glyph glyph-name="seveneighths" unicode="&#x215e;" horiz-adv-x="826" 
d="M144 340h-65q36 158 150 310h-211v50h274v-42q-113 -157 -148 -318zM576 700h67l-475 -700h-67zM698 185q44 -9 69.5 -33.5t25.5 -60.5q0 -49 -44 -76t-109 -27t-109 27t-44 76q0 36 26 60.5t70 33.5q-85 18 -85 85q0 47 40.5 71.5t101.5 24.5t102 -25t41 -71
q0 -67 -85 -85zM558 262q0 -27 22.5 -42t59.5 -15t60 15t23 42q0 28 -23 42.5t-60 14.5t-59.5 -14.5t-22.5 -42.5zM640 35q41 0 66.5 16.5t25.5 46.5t-25.5 46.5t-66.5 16.5t-66.5 -16.5t-25.5 -46.5t25.5 -46.5t66.5 -16.5z" />
    <glyph glyph-name="arrowleft" unicode="&#x2190;" horiz-adv-x="761" 
d="M694 391v-70h-493l234 -228h-106l-262 263l263 263h105l-234 -228h493z" />
    <glyph glyph-name="arrowup" unicode="&#x2191;" horiz-adv-x="660" 
d="M594 497v-107l-227 231v-626h-74v626l-226 -231l1 108l262 262z" />
    <glyph glyph-name="arrowright" unicode="&#x2192;" horiz-adv-x="761" 
d="M431 619l263 -263l-262 -263h-106l234 228h-493v70h493l-234 228h105z" />
    <glyph glyph-name="arrowdown" unicode="&#x2193;" horiz-adv-x="660" 
d="M367 79l227 231v-107l-264 -263l-262 262l-1 108l226 -231v626h74v-626z" />
    <glyph glyph-name="arrowboth" unicode="&#x2194;" horiz-adv-x="1010" 
d="M713 586l230 -230l-230 -230h-105l200 195h-606l200 -195h-105l-230 230l230 230h105l-200 -195h606l-200 195h105z" />
    <glyph glyph-name="arrowupdn" unicode="&#x2195;" horiz-adv-x="586" 
d="M519 457l-193 197v-604l193 198v-106l-230 -230l-222 222v106l185 -189v603l-185 -189v106l222 221l230 -230v-105z" />
    <glyph glyph-name="uni2196" unicode="&#x2196;" horiz-adv-x="627" 
d="M560 151l-50 -51l-368 367l3 -326l-78 76v371h372l75 -72l-321 3z" />
    <glyph glyph-name="uni2197" unicode="&#x2197;" horiz-adv-x="627" 
d="M188 588h372v-371l-78 -76l3 326l-367 -367l-51 51l368 368l-322 -3z" />
    <glyph glyph-name="uni2198" unicode="&#x2198;" horiz-adv-x="627" 
d="M482 564l78 -76v-372h-372l-75 73l322 -4l-368 368l51 51l367 -367z" />
    <glyph glyph-name="uni2199" unicode="&#x2199;" horiz-adv-x="627" 
d="M560 553l-367 -368l321 4l-75 -73h-372v372l78 76l-3 -327l368 367z" />
    <glyph glyph-name="partialdiff" unicode="&#x2202;" horiz-adv-x="553" 
d="M251 756q127 0 190 -97.5t63 -301.5q0 -192 -67 -280.5t-180 -88.5q-101 0 -159.5 63.5t-58.5 181.5q0 110 61 177.5t158 67.5q102 0 158 -79q-6 149 -48 219.5t-122 70.5q-83 0 -142 -75l-47 54q75 88 194 88zM253 57q72 0 114 60t49 179q-17 54 -55 83.5t-87 29.5
q-68 0 -108 -49t-40 -127q0 -86 35 -131t92 -45z" />
    <glyph glyph-name="emptyset" unicode="&#x2205;" horiz-adv-x="572" 
d="M536 519l-76 -76q45 -58 45 -142q0 -101 -61 -159t-158 -58q-85 0 -141 44l-78 -78l-32 32l77 77q-45 56 -45 142q0 101 61 158.5t158 57.5q84 0 141 -43l77 77zM142 301q0 -51 24 -89l209 210q-37 27 -89 27q-66 0 -105 -40t-39 -108zM429 301q0 51 -23 88l-210 -210
q37 -26 90 -26q66 0 104.5 40t38.5 108z" />
    <glyph glyph-name="product" unicode="&#x220f;" horiz-adv-x="633" 
d="M548 700v-787h-85v717h-293v-717h-86v787h464z" />
    <glyph glyph-name="summation" unicode="&#x2211;" horiz-adv-x="495" 
d="M135 -17h335v-70h-434v62l229 350l-217 313v62h414v-70h-314l212 -305z" />
    <glyph glyph-name="minus" unicode="&#x2212;" horiz-adv-x="495" 
d="M57 364h381v-63h-381v63z" />
    <glyph glyph-name="radical" unicode="&#x221a;" horiz-adv-x="568" 
d="M462 712h74l-212 -805h-102l-119 403h-77v65h133l114 -406z" />
    <glyph glyph-name="infinity" unicode="&#x221e;" horiz-adv-x="606" 
d="M442 468q61 0 98 -36t37 -105q0 -70 -37 -106.5t-98 -36.5q-42 0 -74 20.5t-65 72.5q-33 -52 -65 -72.5t-74 -20.5q-60 0 -97 36.5t-37 106.5q0 69 37 105t97 36q42 0 74 -20.5t65 -72.5q34 52 65.5 72.5t73.5 20.5zM169 238q57 0 106 88q-50 89 -106 89q-34 0 -55 -23
t-21 -65q0 -43 21 -66t55 -23zM438 238q34 0 55 23t21 66q0 42 -21 65t-55 23q-57 0 -107 -89q49 -88 107 -88z" />
    <glyph glyph-name="integral" unicode="&#x222b;" horiz-adv-x="395" 
d="M273 728q22 0 52 -5v-59q-27 3 -38 3q-55 0 -55 -76v-556q0 -128 -116 -128q-32 0 -52 5v59q14 -3 38 -3q55 0 55 76v556q0 128 116 128z" />
    <glyph glyph-name="approxequal" unicode="&#x2248;" horiz-adv-x="530" 
d="M176 413q-26 0 -40 -20.5t-14 -51.5h-53q0 56 25.5 92t78.5 36q36 0 69 -21t60.5 -42t51.5 -21q26 0 40 20t14 51h53q0 -55 -25.5 -91.5t-77.5 -36.5q-37 0 -70 21.5t-60.5 42.5t-51.5 21zM354 228q26 0 40 20t14 51h53q0 -56 -25.5 -92t-77.5 -36q-37 0 -70 21t-60.5 42
t-51.5 21q-27 0 -40.5 -20t-13.5 -52h-53q0 56 25.5 92.5t78.5 36.5q36 0 69 -21t60.5 -42t51.5 -21z" />
    <glyph glyph-name="notequal" unicode="&#x2260;" horiz-adv-x="511" 
d="M446 380h-140l-47 -108h187v-60h-212l-39 -89h-56l38 89h-112v60h138l47 108h-185v61h211l38 88h56l-38 -88h114v-61z" />
    <glyph glyph-name="lessequal" unicode="&#x2264;" horiz-adv-x="494" 
d="M418 567v-75l-290 -114l290 -87v-75l-359 118v82zM59 107v61h359v-61h-359z" />
    <glyph glyph-name="greaterequal" unicode="&#x2265;" horiz-adv-x="494" 
d="M77 567l359 -151v-82l-359 -118v75l289 87l-289 114v75zM77 107v61h359v-61h-359z" />
    <glyph glyph-name="uni2460" unicode="&#x2460;" 
d="M404 -12q-158 0 -259 99.5t-101 262.5t101 262.5t259 99.5t259 -99.5t101 -262.5t-101 -262.5t-259 -99.5zM404 30q139 0 227 88t88 232t-88 232t-227 88t-227 -88t-88 -232t88 -232t227 -88zM321 425v60l75 43h48v-356h-59v290z" />
    <glyph glyph-name="uni2461" unicode="&#x2461;" 
d="M404 -12q-158 0 -259 99.5t-101 262.5t101 262.5t259 99.5t259 -99.5t101 -262.5t-101 -262.5t-259 -99.5zM404 30q139 0 227 88t88 232t-88 232t-227 88t-227 -88t-88 -232t88 -232t227 -88zM281 173v44l114 112q26 25 38.5 38t23 31.5t10.5 36.5q0 24 -15 38t-39 14
q-60 0 -66 -82l-57 5q4 63 37.5 94t85.5 31q50 0 81.5 -26t31.5 -74q0 -32 -17 -60t-58 -67l-88 -87h173v-48h-255z" />
    <glyph glyph-name="uni2462" unicode="&#x2462;" 
d="M404 -12q-158 0 -259 99.5t-101 262.5t101 262.5t259 99.5t259 -99.5t101 -262.5t-101 -262.5t-259 -99.5zM404 30q139 0 227 88t88 232t-88 232t-227 88t-227 -88t-88 -232t88 -232t227 -88zM271 275l57 3q9 -64 75 -64q35 0 55.5 18t20.5 50q0 30 -18.5 47.5
t-55.5 17.5q-26 0 -54 -6v42l101 97h-164v48h241v-44l-109 -96q119 -5 119 -106q0 -56 -38.5 -86t-97.5 -30q-56 0 -91.5 27.5t-40.5 81.5z" />
    <glyph glyph-name="uni2463" unicode="&#x2463;" 
d="M404 -12q-158 0 -259 99.5t-101 262.5t101 262.5t259 99.5t259 -99.5t101 -262.5t-101 -262.5t-259 -99.5zM404 30q139 0 227 88t88 232t-88 232t-227 88t-227 -88t-88 -232t88 -232t227 -88zM241 252v45l158 231h97v-227h59v-49h-59v-80h-60v80h-195zM300 301h136v197z
" />
    <glyph glyph-name="uni2464" unicode="&#x2464;" 
d="M404 -12q-158 0 -259 99.5t-101 262.5t101 262.5t259 99.5t259 -99.5t101 -262.5t-101 -262.5t-259 -99.5zM404 30q139 0 227 88t88 232t-88 232t-227 88t-227 -88t-88 -232t88 -232t227 -88zM271 267l57 4q6 -28 27.5 -42.5t50.5 -14.5q34 0 55 20t21 56t-21.5 55.5
t-54.5 19.5q-49 0 -74 -37l-53 5l16 195h227v-48h-182l-9 -109q34 36 93 36q53 0 85.5 -30.5t32.5 -86.5q0 -59 -37.5 -91.5t-98.5 -32.5q-53 0 -90.5 26.5t-44.5 74.5z" />
    <glyph glyph-name="uni2465" unicode="&#x2465;" 
d="M404 -12q-158 0 -259 99.5t-101 262.5t101 262.5t259 99.5t259 -99.5t101 -262.5t-101 -262.5t-259 -99.5zM404 30q139 0 227 88t88 232t-88 232t-227 88t-227 -88t-88 -232t88 -232t227 -88zM264 344q0 93 39 141.5t107 48.5q53 0 85 -26.5t37 -73.5l-57 -3
q-3 25 -20 40.5t-45 15.5q-82 0 -87 -137q30 51 100 51q54 0 88 -30t34 -85q0 -56 -36.5 -88t-99.5 -32q-145 0 -145 178zM332 286q0 -32 21 -52t55 -20q35 0 56.5 20t21.5 52q0 33 -21.5 52.5t-56.5 19.5t-55.5 -19.5t-20.5 -52.5z" />
    <glyph glyph-name="uni2466" unicode="&#x2466;" 
d="M404 -12q-158 0 -259 99.5t-101 262.5t101 262.5t259 99.5t259 -99.5t101 -262.5t-101 -262.5t-259 -99.5zM404 30q139 0 227 88t88 232t-88 232t-227 88t-227 -88t-88 -232t88 -232t227 -88zM282 480v48h252v-41q-103 -157 -133 -315h-65q32 153 139 308h-193z" />
    <glyph glyph-name="uni2467" unicode="&#x2467;" 
d="M404 -12q-158 0 -259 99.5t-101 262.5t101 262.5t259 99.5t259 -99.5t101 -262.5t-101 -262.5t-259 -99.5zM405 30q139 0 227 88t88 232t-88 232t-227 88t-227 -88t-88 -232t88 -232t227 -88zM262 266q0 72 87 92q-78 18 -78 84q0 44 38 68t95 24t95 -24t38 -68
q0 -66 -78 -84q88 -20 88 -92q0 -48 -41 -74t-102 -26t-101.5 26t-40.5 74zM329 434q0 -26 20 -40t55 -14t55 14t20 40t-20.5 40t-54.5 14t-54.5 -14t-20.5 -40zM320 273q0 -28 23.5 -44t60.5 -16t61 16t24 44t-24 44t-61 16t-60.5 -16t-23.5 -44z" />
    <glyph glyph-name="uni2468" unicode="&#x2468;" 
d="M404 -12q-158 0 -259 99.5t-101 262.5t101 262.5t259 99.5t259 -99.5t101 -262.5t-101 -262.5t-259 -99.5zM406 30q139 0 227 88t88 232t-88 232t-227 88t-227 -88t-88 -232t88 -232t227 -88zM263 415q0 56 37 87.5t99 31.5q147 0 147 -178q0 -94 -38.5 -142t-107.5 -48
q-53 0 -85.5 26.5t-37.5 73.5l57 4q3 -25 20.5 -40.5t45.5 -15.5q82 0 86 140q-28 -51 -100 -51q-54 0 -88.5 29.5t-34.5 82.5zM323 415q0 -32 21.5 -51t56.5 -19t56 19.5t21 50.5q0 32 -21.5 52t-55.5 20q-35 0 -56.5 -20t-21.5 -52z" />
    <glyph glyph-name="uni24EA" unicode="&#x24ea;" 
d="M404 -12q-158 0 -259 99.5t-101 262.5t101 262.5t259 99.5t259 -99.5t101 -262.5t-101 -262.5t-259 -99.5zM404 30q139 0 227 88t88 232t-88 232t-227 88t-227 -88t-88 -232t88 -232t227 -88zM260 350q0 86 37.5 135t106.5 49t107 -49t38 -135t-38 -135t-107 -49
t-106.5 49t-37.5 135zM319 350q0 -65 22.5 -100.5t62.5 -35.5t62.5 35.5t22.5 100.5t-22.5 100.5t-62.5 35.5t-62.5 -35.5t-22.5 -100.5z" />
    <glyph glyph-name="uni24FF" unicode="&#x24ff;" 
d="M404 -12q-158 0 -259 99.5t-101 262.5t101 262.5t259 99.5t259 -99.5t101 -262.5t-101 -262.5t-259 -99.5zM260 350q0 -86 37.5 -135t106.5 -49t107 49t38 135t-38 135t-107 49t-106.5 -49t-37.5 -135zM319 350q0 65 22.5 100.5t62.5 35.5t62.5 -35.5t22.5 -100.5
t-22.5 -100.5t-62.5 -35.5t-62.5 35.5t-22.5 100.5z" />
    <glyph glyph-name="lozenge" unicode="&#x25ca;" horiz-adv-x="490" 
d="M291 700l163 -350l-163 -350h-93l-163 350l163 350h93zM245 51l134 299l-134 299l-134 -299z" />
    <glyph glyph-name="uni2776" unicode="&#x2776;" 
d="M404 -12q-158 0 -259 99.5t-101 262.5t101 262.5t259 99.5t259 -99.5t101 -262.5t-101 -262.5t-259 -99.5zM321 425l64 37v-290h59v356h-48l-75 -43v-60z" />
    <glyph glyph-name="uni2777" unicode="&#x2777;" 
d="M404 -12q-158 0 -259 99.5t-101 262.5t101 262.5t259 99.5t259 -99.5t101 -262.5t-101 -262.5t-259 -99.5zM281 173h255v48h-173l88 87q41 39 58 67t17 60q0 48 -31.5 74t-81.5 26q-52 0 -85.5 -31t-37.5 -94l57 -5q6 82 66 82q24 0 39 -14t15 -38q0 -25 -16.5 -47
t-55.5 -59l-114 -112v-44z" />
    <glyph glyph-name="uni2778" unicode="&#x2778;" 
d="M404 -12q-158 0 -259 99.5t-101 262.5t101 262.5t259 99.5t259 -99.5t101 -262.5t-101 -262.5t-259 -99.5zM271 275q5 -54 40.5 -81.5t91.5 -27.5q59 0 97.5 30t38.5 86q0 101 -119 106l109 96v44h-241v-48h164l-101 -97v-42q28 6 54 6q37 0 55.5 -17.5t18.5 -47.5
q0 -32 -20.5 -50t-55.5 -18q-66 0 -75 64z" />
    <glyph glyph-name="uni2779" unicode="&#x2779;" 
d="M404 -12q-158 0 -259 99.5t-101 262.5t101 262.5t259 99.5t259 -99.5t101 -262.5t-101 -262.5t-259 -99.5zM241 252h195v-80h60v80h59v49h-59v227h-97l-158 -231v-45zM300 301l136 197v-197h-136z" />
    <glyph glyph-name="uni277A" unicode="&#x277a;" 
d="M404 -12q-158 0 -259 99.5t-101 262.5t101 262.5t259 99.5t259 -99.5t101 -262.5t-101 -262.5t-259 -99.5zM271 267q7 -48 44.5 -74.5t90.5 -26.5q61 0 98.5 32.5t37.5 91.5q0 56 -32.5 86.5t-85.5 30.5q-59 0 -93 -36l9 109h182v48h-227l-16 -195l53 -5q25 37 74 37
q33 0 54.5 -19.5t21.5 -55.5t-21 -56t-55 -20q-29 0 -50.5 14.5t-27.5 42.5z" />
    <glyph glyph-name="uni277B" unicode="&#x277b;" 
d="M404 -12q-158 0 -259 99.5t-101 262.5t101 262.5t259 99.5t259 -99.5t101 -262.5t-101 -262.5t-259 -99.5zM264 344q0 -178 145 -178q63 0 99.5 32t36.5 88q0 55 -34 85t-88 30q-70 0 -100 -51q5 137 87 137q28 0 45 -15.5t20 -40.5l57 3q-5 47 -37 73.5t-85 26.5
q-68 0 -107 -48.5t-39 -141.5zM332 286q0 33 20.5 52.5t55.5 19.5t56.5 -19.5t21.5 -52.5q0 -32 -21.5 -52t-56.5 -20q-34 0 -55 20t-21 52z" />
    <glyph glyph-name="uni277C" unicode="&#x277c;" 
d="M404 -12q-158 0 -259 99.5t-101 262.5t101 262.5t259 99.5t259 -99.5t101 -262.5t-101 -262.5t-259 -99.5zM282 480h193q-107 -155 -139 -308h65q30 158 133 315v41h-252v-48z" />
    <glyph glyph-name="uni277D" unicode="&#x277d;" 
d="M404 -12q-158 0 -259 99.5t-101 262.5t101 262.5t259 99.5t259 -99.5t101 -262.5t-101 -262.5t-259 -99.5zM262 266q0 -48 40.5 -74t101.5 -26t102 26t41 74q0 72 -88 92q78 18 78 84q0 44 -38 68t-95 24t-95 -24t-38 -68q0 -66 78 -84q-87 -20 -87 -92zM329 434
q0 26 20.5 40t54.5 14t54.5 -14t20.5 -40t-20 -40t-55 -14t-55 14t-20 40zM320 273q0 28 23.5 44t60.5 16t61 -16t24 -44t-24 -44t-61 -16t-60.5 16t-23.5 44z" />
    <glyph glyph-name="uni277E" unicode="&#x277e;" 
d="M404 -12q-158 0 -259 99.5t-101 262.5t101 262.5t259 99.5t259 -99.5t101 -262.5t-101 -262.5t-259 -99.5zM263 415q0 -53 34.5 -82.5t88.5 -29.5q72 0 100 51q-4 -140 -86 -140q-28 0 -45.5 15.5t-20.5 40.5l-57 -4q5 -47 37.5 -73.5t85.5 -26.5q69 0 107.5 48t38.5 142
q0 178 -147 178q-62 0 -99 -31.5t-37 -87.5zM323 415q0 32 21.5 52t56.5 20q34 0 55.5 -20t21.5 -52q0 -31 -21 -50.5t-56 -19.5t-56.5 19t-21.5 51z" />
    <glyph glyph-name="i.loclTRK" horiz-adv-x="233" 
d="M70 610v112h93v-112h-93zM73 0v524h87v-524h-87z" />
    <glyph glyph-name="zero.osf" horiz-adv-x="602" 
d="M45 283q0 136 68 214.5t188 78.5t188 -78.5t68 -214.5t-68 -214.5t-188 -78.5t-188 78.5t-68 214.5zM132 283q0 -104 45 -163t124 -59q80 0 124.5 58.5t44.5 163.5t-44.5 163.5t-124.5 58.5q-79 0 -124 -59t-45 -163z" />
    <glyph glyph-name="one.osf" horiz-adv-x="492" 
d="M311 71h151v-71h-411v71h173v399l-149 -88v86l166 98h70v-495z" />
    <glyph glyph-name="two.osf" horiz-adv-x="520" 
d="M145 71h350v-71h-475v65l239 188q38 31 53 44t38.5 37t32 43.5t8.5 41.5q0 42 -34 64t-90 22q-63 0 -102 -33t-46 -100l-83 7q8 99 70.5 148t160.5 49q95 0 153 -40.5t58 -114.5q0 -52 -34 -97.5t-115 -106.5z" />
    <glyph glyph-name="three.osf" horiz-adv-x="546" 
d="M445 243q66 -53 66 -154q0 -105 -69 -162.5t-179 -57.5q-102 0 -167.5 51.5t-75.5 153.5l85 6q8 -71 50 -105t108 -34q72 0 116 39t44 109q0 64 -40 102.5t-117 38.5q-45 0 -101 -11v62l214 213h-327v72h441v-65l-226 -211q117 3 178 -47z" />
    <glyph glyph-name="four.osf" horiz-adv-x="597" 
d="M461 93h106v-72h-106v-142h-88v142h-348v66l292 479h144v-473zM112 93h261v427z" />
    <glyph glyph-name="five.osf" horiz-adv-x="555" 
d="M299 334q99 0 160 -61t61 -168q0 -111 -68 -173.5t-178 -62.5q-100 0 -167.5 49.5t-80.5 140.5l86 6q10 -60 54.5 -92t107.5 -32q68 0 112.5 42t44.5 122t-44.5 121t-111.5 41q-47 0 -88.5 -20t-65.5 -58l-78 6l29 371h411v-72h-344l-18 -232q66 72 178 72z" />
    <glyph glyph-name="six.osf" horiz-adv-x="593" 
d="M329 454q98 0 161.5 -62t63.5 -169q0 -110 -66 -172.5t-179 -62.5q-260 0 -260 347q0 184 68.5 280.5t194.5 96.5q94 0 151.5 -52t65.5 -141l-85 -6q-5 57 -40 92t-92 35q-101 0 -145 -110q-28 -69 -29 -191q24 55 75 85t116 30zM309 60q71 0 114 44.5t43 118.5
q0 73 -43 117.5t-114 44.5t-113.5 -44.5t-42.5 -117.5q0 -74 42.5 -118.5t113.5 -44.5z" />
    <glyph glyph-name="seven.osf" horiz-adv-x="531" 
d="M31 566h473v-61q-205 -313 -271 -626h-91q71 314 276 615h-387v72z" />
    <glyph glyph-name="eight.osf" horiz-adv-x="586" 
d="M386 365q76 -18 118.5 -65.5t42.5 -116.5q0 -92 -72 -143.5t-182 -51.5t-182 51.5t-72 143.5q0 69 44 116.5t120 65.5q-70 16 -108.5 58t-38.5 108q0 87 67.5 134t169.5 47q103 0 170.5 -47t67.5 -134q0 -66 -38 -108t-107 -58zM142 520q0 -60 41.5 -92t109.5 -32
t109.5 32t41.5 92q0 59 -41.5 90.5t-109.5 31.5t-109.5 -31.5t-41.5 -90.5zM293 58q75 0 121.5 35.5t46.5 99.5t-46.5 99.5t-121.5 35.5q-74 0 -121 -35.5t-47 -99.5t47 -99.5t121 -35.5z" />
    <glyph glyph-name="nine.osf" horiz-adv-x="593" 
d="M282 576q262 0 262 -339q0 -182 -67 -274.5t-194 -92.5q-96 0 -153.5 50.5t-66.5 137.5l85 6q6 -55 41 -88.5t94 -33.5q101 0 144 108q28 70 28 188q-25 -53 -76 -82t-116 -29q-97 0 -161 60.5t-64 162.5q0 105 66.5 165.5t177.5 60.5zM283 196q71 0 114 42.5t43 111.5
q0 70 -43 112t-114 42t-113.5 -42t-42.5 -112q0 -69 43 -111.5t113 -42.5z" />
    <glyph glyph-name="zero.subs" horiz-adv-x="444" 
d="M45 98q0 105 46 165t131 60t131 -60t46 -165t-46 -165t-131 -60t-131 60t-46 165zM115 98q0 -80 28.5 -124t78.5 -44t78.5 44t28.5 124t-28.5 124t-78.5 44t-78.5 -44t-28.5 -124z" />
    <glyph glyph-name="one.subs" horiz-adv-x="274" 
d="M128 315h58v-431h-71v348l-80 -66v74z" />
    <glyph glyph-name="two.subs" horiz-adv-x="361" 
d="M111 -62h224v-57h-317v52l145 139q33 32 48.5 47.5t28.5 38.5t13 45q0 31 -19.5 47.5t-51.5 16.5q-77 0 -86 -101l-68 6q5 76 47 114t107 38q62 0 101.5 -31.5t39.5 -89.5q0 -39 -21.5 -73t-74.5 -83z" />
    <glyph glyph-name="three.subs" horiz-adv-x="377" 
d="M292 121q53 -33 53 -104q0 -68 -47.5 -104t-120.5 -36q-70 0 -113.5 33t-50.5 98l68 5q10 -79 96 -79q44 0 70.5 21.5t26.5 61.5q0 37 -24 58.5t-71 21.5q-27 0 -68 -7v48l131 120h-207v57h297v-50l-143 -120q63 0 103 -24z" />
    <glyph glyph-name="four.subs" horiz-adv-x="431" 
d="M332 38h74v-57h-74v-97h-70v97h-239v53l195 281h114v-277zM92 38h170v242z" />
    <glyph glyph-name="five.subs" horiz-adv-x="400" 
d="M219 165q66 0 106 -36t40 -103q0 -71 -46 -110t-120 -39q-67 0 -113 32t-55 90l68 4q6 -34 34 -51.5t66 -17.5q42 0 69 23.5t27 68.5q0 46 -27 69t-70 23q-62 0 -94 -44l-62 5l19 236h279v-57h-226l-11 -135q42 42 116 42z" />
    <glyph glyph-name="six.subs" horiz-adv-x="429" 
d="M242 159q65 0 107 -36t42 -103q0 -68 -45.5 -107t-122.5 -39q-178 0 -178 217q0 115 47 174t133 59q65 0 104.5 -32t45.5 -90l-68 -4q-3 31 -24.5 50t-57.5 19q-62 0 -89 -59q-20 -40 -20 -110q38 61 126 61zM223 -69q45 0 71.5 24t26.5 65q0 42 -26.5 66.5t-71.5 24.5
q-44 0 -70.5 -24.5t-26.5 -66.5q0 -40 26.5 -64.5t70.5 -24.5z" />
    <glyph glyph-name="seven.subs" horiz-adv-x="348" 
d="M20 315h314v-48q-130 -188 -170 -383h-75q42 189 176 374h-245v57z" />
    <glyph glyph-name="eight.subs" horiz-adv-x="423" 
d="M278 109q50 -12 79 -41t29 -72q0 -58 -49.5 -90t-124.5 -32t-125 32t-50 90q0 43 29.5 72t79.5 41q-46 10 -72 36t-26 66q0 54 46.5 83.5t117.5 29.5q70 0 116.5 -29.5t46.5 -83.5q0 -79 -97 -102zM117 201q0 -34 26 -51.5t69 -17.5t68.5 17.5t25.5 51.5t-25.5 52
t-68.5 18t-69 -18t-26 -52zM212 -73q48 0 77 20t29 57q0 36 -29 56t-77 20q-49 0 -77.5 -20t-28.5 -56q0 -37 28.5 -57t77.5 -20z" />
    <glyph glyph-name="nine.subs" horiz-adv-x="429" 
d="M206 324q178 0 178 -217q0 -116 -46 -174.5t-133 -58.5q-65 0 -105 32t-46 90l68 4q4 -31 25.5 -50t57.5 -19q65 0 92 65q17 41 16 107q-37 -62 -127 -62q-64 0 -106 36t-42 101q0 68 45.5 107t122.5 39zM206 90q44 0 70.5 24t26.5 64t-26.5 64.5t-70.5 24.5t-71 -24.5
t-27 -64.5t27 -64t71 -24z" />
    <glyph glyph-name="zero.tf" horiz-adv-x="630" 
d="M67 350q0 169 65 265.5t183 96.5t183 -96.5t65 -265.5t-65 -265.5t-183 -96.5t-183 96.5t-65 265.5zM153 350q0 -136 42.5 -214t119.5 -78t119.5 78t42.5 214t-42.5 213.5t-119.5 77.5t-119.5 -77.5t-42.5 -213.5z" />
    <glyph glyph-name="one.tf" horiz-adv-x="630" 
d="M386 72h178v-72h-477v72h210v526l-187 -134v89l205 147h71v-628z" />
    <glyph glyph-name="two.tf" horiz-adv-x="630" 
d="M191 70h349v-70h-464v64l226 241q51 54 73.5 80.5t42.5 65.5t20 76q0 56 -33 85.5t-87 29.5q-62 0 -100 -43.5t-45 -133.5l-81 7q7 120 68.5 180t157.5 60q92 0 149 -48t57 -137q0 -63 -33 -118t-113 -139z" />
    <glyph glyph-name="three.tf" horiz-adv-x="630" 
d="M470 377q73 -55 73 -165q0 -106 -68 -165t-176 -59q-101 0 -165 52.5t-73 156.5l85 6q14 -143 153 -143q70 0 112.5 40t42.5 112q0 66 -38.5 106t-113.5 40q-46 0 -99 -12v62l207 220h-318v72h433v-65l-219 -216q105 2 164 -42z" />
    <glyph glyph-name="four.tf" horiz-adv-x="630" 
d="M476 234h103v-69h-103v-165h-85v165h-342v64l285 471h142v-466zM134 234h257v423z" />
    <glyph glyph-name="five.tf" horiz-adv-x="630" 
d="M343 462q97 0 156.5 -62t59.5 -171q0 -114 -66.5 -177.5t-174.5 -63.5q-97 0 -164 51t-79 143l85 6q10 -62 53.5 -95t104.5 -33q66 0 109.5 43.5t43.5 125.5t-43 124t-109 42q-100 0 -150 -80l-78 6l29 379h403v-72h-337l-17 -239q65 73 174 73z" />
    <glyph glyph-name="six.tf" horiz-adv-x="630" 
d="M353 453q96 0 158 -61.5t62 -169.5q0 -109 -64.5 -171.5t-174.5 -62.5q-255 0 -255 347q0 184 67 280.5t190 96.5q92 0 148 -52t64 -141l-82 -6q-5 58 -39.5 94t-90.5 36q-90 0 -136 -97q-34 -73 -35 -207q25 55 74.5 84.5t113.5 29.5zM334 57q69 0 111 45t42 120
t-42 120t-111 45q-70 0 -112 -45t-42 -120t42 -120t112 -45z" />
    <glyph glyph-name="seven.tf" horiz-adv-x="630" 
d="M80 700h464v-62q-197 -315 -262 -638h-96q68 315 273 628h-379v72z" />
    <glyph glyph-name="eight.tf" horiz-adv-x="630" 
d="M403 365q75 -18 117.5 -65.5t42.5 -117.5q0 -91 -70.5 -142.5t-177.5 -51.5t-177.5 51.5t-70.5 142.5q0 70 42.5 117.5t117.5 65.5q-68 16 -106 58t-38 108q0 87 65.5 134t166.5 47t166.5 -47t65.5 -134q0 -66 -38 -108.5t-106 -57.5zM167 520q0 -60 40.5 -92.5
t107.5 -32.5t107.5 32.5t40.5 92.5q0 61 -40.5 93t-107.5 32t-107.5 -32t-40.5 -93zM315 55q72 0 118.5 36t46.5 101t-46.5 101t-118.5 36t-118.5 -36t-46.5 -101t46.5 -101t118.5 -36z" />
    <glyph glyph-name="nine.tf" horiz-adv-x="630" 
d="M295 712q256 0 256 -347q0 -186 -66 -281.5t-189 -95.5q-93 0 -149.5 52t-65.5 140l83 7q5 -58 39.5 -94t92.5 -36q94 0 137 103q32 78 32 207q-25 -55 -75 -84.5t-114 -29.5q-95 0 -157 61.5t-62 166.5q0 107 65 169t173 62zM296 319q70 0 112 44.5t42 117.5t-42 117.5
t-112 44.5q-69 0 -111 -44.5t-42 -117.5t42 -117.5t111 -44.5z" />
    <glyph glyph-name="zero.tosf" horiz-adv-x="630" 
d="M67 283q0 136 66 214.5t182 78.5t182 -78.5t66 -214.5t-66 -214.5t-182 -78.5t-182 78.5t-66 214.5zM152 283q0 -105 43 -164.5t120 -59.5t120 59.5t43 164.5t-43 164.5t-120 59.5t-120 -59.5t-43 -164.5z" />
    <glyph glyph-name="one.tosf" horiz-adv-x="630" 
d="M388 71h184v-71h-479v71h208v401l-180 -90v86l198 98h69v-495z" />
    <glyph glyph-name="two.tosf" horiz-adv-x="630" 
d="M203 71h334v-71h-458v65l229 188q35 30 50 43.5t37 37t30.5 43.5t8.5 42q0 42 -31.5 64t-85.5 22q-59 0 -95.5 -33t-43.5 -100l-83 7q8 99 68 148t154 49q92 0 148 -40.5t56 -114.5q0 -51 -32.5 -96.5t-110.5 -108.5z" />
    <glyph glyph-name="three.tosf" horiz-adv-x="630" 
d="M467 247q73 -53 73 -160q0 -104 -69.5 -161t-181.5 -57q-104 0 -170 51.5t-75 152.5l85 6q7 -71 50 -104.5t110 -33.5q73 0 117.5 38.5t44.5 107.5q0 64 -40.5 102.5t-118.5 38.5q-43 0 -102 -10v62l217 214h-331v72h445v-65l-225 -211q110 2 171 -43z" />
    <glyph glyph-name="four.tosf" horiz-adv-x="630" 
d="M476 105h105v-72h-105v-154h-89v154h-345v66l290 467h144v-461zM129 105h258v410z" />
    <glyph glyph-name="five.tosf" horiz-adv-x="630" 
d="M342 331q96 0 156 -60.5t60 -166.5q0 -111 -66.5 -173t-174.5 -62q-97 0 -164.5 49.5t-79.5 139.5l86 6q10 -60 53.5 -91.5t104.5 -31.5q66 0 109.5 42t43.5 121t-43.5 119.5t-109.5 40.5q-46 0 -86 -20t-64 -57l-78 6l29 373h403v-72h-336l-18 -235q64 72 175 72z" />
    <glyph glyph-name="six.tosf" horiz-adv-x="630" 
d="M351 454q95 0 156.5 -62t61.5 -170q0 -110 -64 -172t-173 -62q-252 0 -252 347q0 184 66 280.5t188 96.5q91 0 147 -52t64 -141l-82 -6q-5 58 -39 94t-90 36q-86 0 -130 -90q-35 -70 -38 -214q24 56 73 85.5t112 29.5zM332 57q68 0 109.5 45t41.5 120t-41.5 120
t-109.5 45t-109.5 -45t-41.5 -120t41.5 -120t109.5 -45z" />
    <glyph glyph-name="seven.tosf" horiz-adv-x="630" 
d="M78 566h456v-61q-196 -314 -259 -626h-91q68 315 265 615h-371v72z" />
    <glyph glyph-name="eight.tosf" horiz-adv-x="630" 
d="M404 365q73 -18 115 -65.5t42 -116.5q0 -92 -70 -143.5t-176 -51.5t-176 51.5t-70 143.5q0 69 42.5 116.5t116.5 65.5q-67 15 -104.5 57t-37.5 109q0 87 65 134t164 47t164 -47t65 -134q0 -66 -37 -108t-103 -58zM172 520q0 -60 39 -92t104 -32t104 32t39 92
q0 59 -39 90.5t-104 31.5t-104 -31.5t-39 -90.5zM315 58q70 0 115 35.5t45 99.5t-45 99.5t-115 35.5t-115 -35.5t-45 -99.5t45 -99.5t115 -35.5z" />
    <glyph glyph-name="nine.tosf" horiz-adv-x="630" 
d="M296 575q253 0 253 -338q0 -181 -65 -274.5t-188 -93.5q-92 0 -148 50.5t-64 137.5l82 7q5 -56 39 -91t91 -35q93 0 136 100q31 75 31 200q-24 -53 -73.5 -82t-112.5 -29q-94 0 -156 60t-62 163q0 104 65 164.5t172 60.5zM297 193q68 0 109.5 43t41.5 114t-41.5 113.5
t-109.5 42.5t-110 -43t-42 -113t42 -113.5t110 -43.5z" />
    <glyph glyph-name="zero.zero" horiz-adv-x="611" 
d="M306 712q122 0 189 -96.5t67 -265.5t-67 -265.5t-189 -96.5q-123 0 -190 96.5t-67 265.5t67 265.5t190 96.5zM306 640q-80 0 -124.5 -77t-44.5 -213q0 -93 22 -162l268 380q-45 72 -121 72zM306 60q79 0 123.5 77t44.5 213q0 96 -23 165l-268 -381q45 -74 123 -74z" />
    <glyph glyph-name="zero.osf.zero" horiz-adv-x="602" 
d="M301 576q120 0 188 -78.5t68 -214.5t-68 -214.5t-188 -78.5t-188 78.5t-68 214.5t68 214.5t188 78.5zM301 505q-79 0 -124 -59t-45 -163q0 -65 19 -117l273 282q-45 57 -123 57zM301 61q80 0 124.5 58.5t44.5 163.5q0 72 -20 119l-273 -283q45 -58 124 -58z" />
    <glyph glyph-name="zero.tf.zero" horiz-adv-x="630" 
d="M315 712q118 0 183 -96.5t65 -265.5t-65 -265.5t-183 -96.5t-183 96.5t-65 265.5t65 265.5t183 96.5zM315 641q-77 0 -119.5 -77.5t-42.5 -213.5q0 -95 21 -161l259 377q-42 75 -118 75zM315 58q77 0 119.5 78t42.5 214q0 95 -21 161l-259 -377q42 -76 118 -76z" />
    <glyph glyph-name="zero.tosf.zero" horiz-adv-x="630" 
d="M315 576q116 0 182 -78.5t66 -214.5t-66 -214.5t-182 -78.5t-182 78.5t-66 214.5t66 214.5t182 78.5zM315 507q-77 0 -120 -59.5t-43 -164.5q0 -67 18 -116l266 279q-44 61 -121 61zM315 59q77 0 120 59.5t43 164.5q0 67 -18 116l-266 -279q44 -61 121 -61z" />
    <glyph glyph-name="zero.dnom" horiz-adv-x="392" 
d="M195 366q75 0 115.5 -50t40.5 -139t-40.5 -139t-115.5 -50q-73 0 -113.5 50.5t-40.5 138.5t40.5 138.5t113.5 50.5zM195 38q45 0 69.5 36.5t24.5 102.5t-24.5 102.5t-69.5 36.5q-44 0 -68 -36.5t-24 -102.5t24 -102.5t68 -36.5z" />
    <glyph glyph-name="one.dnom" horiz-adv-x="234" 
d="M115 360h49v-360h-62v285l-74 -49v66z" />
    <glyph glyph-name="two.dnom" horiz-adv-x="320" 
d="M98 50h196v-50h-277v46l127 115q29 26 41.5 39t24 32t11.5 37q0 25 -16.5 39t-44.5 14q-31 0 -50.5 -21t-23.5 -62l-60 5q5 64 41.5 96t92.5 32q54 0 88.5 -27t34.5 -76q0 -32 -19 -61.5t-64 -67.5z" />
    <glyph glyph-name="three.dnom" horiz-adv-x="335" 
d="M267 193q41 -28 41 -85q0 -59 -41.5 -89.5t-108.5 -30.5q-61 0 -100 28t-46 84l61 4q7 -66 85 -66q39 0 63.5 18.5t24.5 51.5q0 30 -22 48t-64 18q-20 0 -61 -6v42l118 100h-185v50h265v-45l-127 -97q64 -2 97 -25z" />
    <glyph glyph-name="four.dnom" horiz-adv-x="371" 
d="M286 131h63v-50h-63v-81h-62v81h-206v46l167 233h101v-229zM80 131h144v200z" />
    <glyph glyph-name="five.dnom" horiz-adv-x="349" 
d="M190 236q59 0 95.5 -31.5t36.5 -89.5q0 -61 -41 -94t-107 -33q-60 0 -101 27t-49 77l58 4q6 -29 30.5 -44.5t61.5 -15.5q39 0 62.5 20t23.5 58q0 39 -23.5 58.5t-62.5 19.5q-60 0 -88 -37l-52 4l17 201h248v-48h-204l-10 -114q38 38 105 38z" />
    <glyph glyph-name="six.dnom" horiz-adv-x="372" 
d="M211 230q58 0 95.5 -31t37.5 -87q0 -58 -39.5 -91t-107.5 -33q-75 0 -115.5 45.5t-40.5 137.5q0 95 42 145t115 50q56 0 91.5 -27t40.5 -75l-59 -5q-3 25 -22 41t-51 16q-54 0 -78 -50q-17 -33 -17 -87q31 51 108 51zM197 38q38 0 62 20.5t24 53.5q0 34 -24 54t-62 20
q-39 0 -62 -20t-23 -54q0 -33 23 -53.5t62 -20.5z" />
    <glyph glyph-name="seven.dnom" horiz-adv-x="305" 
d="M18 360h274v-42q-113 -157 -148 -318h-65q36 158 150 310h-211v50z" />
    <glyph glyph-name="eight.dnom" horiz-adv-x="371" 
d="M243 185q44 -9 69.5 -33t25.5 -61q0 -49 -43.5 -76t-108.5 -27q-66 0 -109.5 27t-43.5 76q0 36 25.5 60.5t69.5 33.5q-85 18 -85 85q0 46 41 71t102 25t101.5 -24.5t40.5 -71.5q0 -67 -85 -85zM103 262q0 -27 23 -42t60 -15t59.5 15t22.5 42q0 28 -22.5 42.5t-59.5 14.5
t-60 -14.5t-23 -42.5zM186 35q41 0 66.5 16.5t25.5 46.5t-25.5 46.5t-66.5 16.5q-42 0 -67.5 -16.5t-25.5 -46.5t25.5 -46.5t67.5 -16.5z" />
    <glyph glyph-name="nine.dnom" horiz-adv-x="372" 
d="M175 366q156 0 156 -183q0 -97 -41 -146t-115 -49q-58 0 -92.5 27t-39.5 75l59 5q3 -26 22.5 -41.5t50.5 -15.5q51 0 75 46q19 35 19 93q-31 -51 -108 -51q-59 0 -96 30.5t-37 86.5q0 57 39.5 90t107.5 33zM175 170q39 0 62 20t23 53t-23 53t-62 20q-38 0 -61.5 -20.5
t-23.5 -52.5q0 -33 23.5 -53t61.5 -20z" />
    <glyph glyph-name="zero.numr" horiz-adv-x="392" 
d="M195 712q75 0 115.5 -50t40.5 -139t-40.5 -139t-115.5 -50q-73 0 -113.5 50.5t-40.5 138.5t40.5 138.5t113.5 50.5zM195 384q45 0 69.5 36.5t24.5 102.5t-24.5 102.5t-69.5 36.5q-44 0 -68 -36.5t-24 -102.5t24 -102.5t68 -36.5z" />
    <glyph glyph-name="one.numr" horiz-adv-x="234" 
d="M115 700h49v-360h-62v285l-74 -49v66z" />
    <glyph glyph-name="two.numr" horiz-adv-x="320" 
d="M98 390h196v-50h-277v46l127 115q29 26 41.5 39t24 32t11.5 37q0 25 -16.5 39t-44.5 14q-31 0 -50.5 -21t-23.5 -62l-60 5q5 64 41.5 96t92.5 32q54 0 88.5 -27t34.5 -76q0 -32 -19 -61.5t-64 -67.5z" />
    <glyph glyph-name="three.numr" horiz-adv-x="335" 
d="M267 533q41 -28 41 -85q0 -59 -41.5 -89.5t-108.5 -30.5q-61 0 -100 28t-46 84l61 4q7 -66 85 -66q39 0 63.5 18.5t24.5 51.5q0 30 -22 48t-64 18q-20 0 -61 -6v42l118 100h-185v50h265v-45l-127 -97q64 -2 97 -25z" />
    <glyph glyph-name="four.numr" horiz-adv-x="371" 
d="M286 471h63v-50h-63v-81h-62v81h-206v46l167 233h101v-229zM80 471h144v200z" />
    <glyph glyph-name="five.numr" horiz-adv-x="349" 
d="M190 578q59 0 95.5 -31.5t36.5 -89.5q0 -61 -40.5 -94t-107.5 -33q-60 0 -101 27t-49 77l58 4q6 -29 30.5 -44.5t61.5 -15.5q39 0 64 20t25 58q0 39 -25 58.5t-64 19.5q-60 0 -88 -37l-52 4l17 201h248v-48h-204l-10 -115q37 39 105 39z" />
    <glyph glyph-name="six.numr" horiz-adv-x="372" 
d="M211 576q58 0 95.5 -31t37.5 -87q0 -58 -39.5 -91t-107.5 -33q-75 0 -115.5 45.5t-40.5 137.5q0 95 42 145t115 50q56 0 91.5 -27t40.5 -75l-59 -5q-3 25 -22 41t-51 16q-54 0 -78 -50q-17 -33 -17 -87q31 51 108 51zM197 384q38 0 61.5 20.5t23.5 53.5q0 34 -23.5 54
t-61.5 20q-39 0 -62 -20t-23 -54q0 -33 23 -53.5t62 -20.5z" />
    <glyph glyph-name="seven.numr" horiz-adv-x="305" 
d="M18 700h274v-42q-113 -157 -148 -318h-65q36 158 150 310h-211v50z" />
    <glyph glyph-name="eight.numr" horiz-adv-x="371" 
d="M243 531q44 -9 69.5 -33t25.5 -61q0 -49 -43.5 -76t-108.5 -27q-66 0 -109.5 27t-43.5 76q0 36 25.5 60.5t69.5 33.5q-85 18 -85 85q0 46 41 71t102 25t101.5 -24.5t40.5 -71.5q0 -67 -85 -85zM103 608q0 -27 23 -42t60 -15t59.5 15t22.5 42q0 28 -22.5 42.5t-59.5 14.5
t-60 -14.5t-23 -42.5zM186 381q41 0 66.5 16.5t25.5 46.5t-25.5 46.5t-66.5 16.5q-42 0 -67.5 -16.5t-25.5 -46.5t25.5 -46.5t67.5 -16.5z" />
    <glyph glyph-name="nine.numr" horiz-adv-x="372" 
d="M175 712q156 0 156 -183q0 -97 -41 -146t-115 -49q-58 0 -92.5 27t-39.5 75l59 5q3 -26 22.5 -41.5t50.5 -15.5q51 0 75 46q19 35 19 93q-31 -51 -108 -51q-59 0 -96 30.5t-37 86.5q0 57 39.5 90t107.5 33zM175 516q39 0 62 20t23 53t-23 53t-62 20q-38 0 -61.5 -20.5
t-23.5 -52.5q0 -33 23.5 -53t61.5 -20z" />
    <glyph glyph-name="zero.sups" horiz-adv-x="444" 
d="M45 548q0 105 46 165t131 60t131 -60t46 -165t-46 -165t-131 -60t-131 60t-46 165zM115 548q0 -80 28.5 -124t78.5 -44t78.5 44t28.5 124t-28.5 124t-78.5 44t-78.5 -44t-28.5 -124z" />
    <glyph glyph-name="one.sups" horiz-adv-x="274" 
d="M128 764h58v-431h-71v348l-80 -66v74z" />
    <glyph glyph-name="two.sups" horiz-adv-x="361" 
d="M111 388h224v-57h-317v52l145 139q33 32 48.5 47.5t28.5 38.5t13 45q0 31 -19.5 47.5t-51.5 16.5q-77 0 -86 -101l-68 6q5 76 47 114t107 38q62 0 101.5 -31.5t39.5 -89.5q0 -39 -21.5 -73t-74.5 -83z" />
    <glyph glyph-name="three.sups" horiz-adv-x="377" 
d="M292 570q53 -33 53 -104q0 -68 -47.5 -104t-120.5 -36q-70 0 -113.5 33t-50.5 98l68 5q10 -79 96 -79q44 0 70.5 21.5t26.5 61.5q0 37 -24 58.5t-71 21.5q-27 0 -68 -7v48l131 120h-207v57h297v-50l-143 -120q63 0 103 -24z" />
    <glyph glyph-name="four.sups" horiz-adv-x="431" 
d="M332 487h74v-57h-74v-97h-70v97h-239v53l195 281h114v-277zM92 487h170v242z" />
    <glyph glyph-name="five.sups" horiz-adv-x="400" 
d="M219 614q66 0 106 -36t40 -103q0 -71 -46 -110t-120 -39q-67 0 -113 32t-55 90l68 4q6 -34 34 -51.5t66 -17.5q42 0 69 23.5t27 68.5q0 46 -27 69t-70 23q-62 0 -94 -44l-62 5l19 236h279v-57h-226l-11 -135q42 42 116 42z" />
    <glyph glyph-name="six.sups" horiz-adv-x="429" 
d="M242 609q65 0 107 -36t42 -103q0 -68 -45.5 -107t-122.5 -39q-178 0 -178 217q0 115 47 174t133 59q65 0 104.5 -32t45.5 -90l-68 -4q-3 31 -24.5 50t-57.5 19q-62 0 -89 -59q-20 -40 -20 -110q38 61 126 61zM223 381q45 0 71.5 24t26.5 65q0 42 -26.5 66.5t-71.5 24.5
q-44 0 -70.5 -24.5t-26.5 -66.5q0 -40 26.5 -64.5t70.5 -24.5z" />
    <glyph glyph-name="seven.sups" horiz-adv-x="348" 
d="M20 764h314v-48q-130 -188 -170 -383h-75q42 189 176 374h-245v57z" />
    <glyph glyph-name="eight.sups" horiz-adv-x="423" 
d="M278 559q50 -12 79 -41t29 -72q0 -58 -49.5 -90t-124.5 -32t-125 32t-50 90q0 43 29.5 72t79.5 41q-46 10 -72 36t-26 66q0 54 46.5 83.5t117.5 29.5q70 0 116.5 -29.5t46.5 -83.5q0 -79 -97 -102zM117 651q0 -34 26 -51.5t69 -17.5t68.5 17.5t25.5 51.5t-25.5 52
t-68.5 18t-69 -18t-26 -52zM212 377q48 0 77 20t29 57q0 36 -29 56t-77 20q-49 0 -77.5 -20t-28.5 -56q0 -37 28.5 -57t77.5 -20z" />
    <glyph glyph-name="nine.sups" horiz-adv-x="429" 
d="M206 774q178 0 178 -217q0 -116 -46 -174.5t-133 -58.5q-65 0 -105 32t-46 90l68 4q4 -31 25.5 -50t57.5 -19q65 0 92 65q17 41 16 107q-37 -62 -127 -62q-64 0 -106 36t-42 101q0 68 45.5 107t122.5 39zM206 540q44 0 70.5 24t26.5 64t-26.5 64.5t-70.5 24.5t-71 -24.5
t-27 -64.5t27 -64t71 -24z" />
    <glyph glyph-name="exclamdown.case" horiz-adv-x="280" 
d="M89 700h102v-115h-102v115zM176 496l11 -496h-94l11 496h72z" />
    <glyph glyph-name="questiondown.case" horiz-adv-x="500" 
d="M316 700v-115h-101v115h101zM242 -12q-92 0 -150 45t-58 135q0 59 27.5 102.5t89.5 91.5q43 33 57.5 54.5t14.5 61.5v16h85v-19q0 -59 -18 -90t-64 -65q-52 -39 -78 -72t-26 -79q0 -54 32.5 -81t87.5 -27q141 0 154 163l84 -6q-8 -115 -72 -172.5t-166 -57.5z" />
    <glyph glyph-name="braceleft.case" horiz-adv-x="330" 
d="M210 486q0 -122 -100 -140v-4q100 -18 100 -141v-121q0 -55 20 -79.5t64 -24.5h8v-61h-11q-77 0 -117 36t-40 123v117q0 122 -89 122h-8v61h8q89 0 89 123v117q0 87 40 122.5t117 35.5h11v-61h-8q-44 0 -64 -24t-20 -79v-122z" />
    <glyph glyph-name="braceright.case" horiz-adv-x="330" 
d="M285 374h8v-61h-8q-89 0 -89 -122v-117q0 -87 -40 -123t-117 -36h-11v61h8q44 0 64 24.5t20 79.5v121q0 123 100 141v4q-100 18 -100 140v122q0 55 -20 79t-64 24h-8v61h11q77 0 117 -35.5t40 -122.5v-117q0 -123 89 -123z" />
    <glyph glyph-name="bracketleft.case" horiz-adv-x="295" 
d="M266 704h-98v-720h98v-69h-178v857h178v-68z" />
    <glyph glyph-name="bracketright.case" horiz-adv-x="295" 
d="M206 772v-857h-178v69h98v720h-98v68h178z" />
    <glyph glyph-name="parenleft.case" horiz-adv-x="313" 
d="M138 348q0 -268 165 -433h-77q-71 65 -121 173t-50 260t50 260t121 173h77q-165 -165 -165 -433z" />
    <glyph glyph-name="parenright.case" horiz-adv-x="313" 
d="M87 781q71 -65 121 -173t50 -260t-50 -260t-121 -173h-77q165 165 165 433t-165 433h77z" />
    <glyph glyph-name="emdash.case" horiz-adv-x="680" 
d="M57 389h566v-68h-566v68z" />
    <glyph glyph-name="endash.case" horiz-adv-x="551" 
d="M57 389h437v-68h-437v68z" />
    <glyph glyph-name="hyphen.case" horiz-adv-x="372" 
d="M57 389h258v-68h-258v68z" />
    <glyph glyph-name="guillemotleft.case" horiz-adv-x="453" 
d="M241 526l-142 -176l142 -176h-88l-122 155v42l122 155h88zM410 526l-142 -176l142 -176h-87l-123 155v42l123 155h87z" />
    <glyph glyph-name="guillemotright.case" horiz-adv-x="453" 
d="M130 526l123 -155v-42l-123 -155h-87l141 176l-141 176h87zM299 526l123 -155v-42l-123 -155h-87l141 176l-141 176h87z" />
    <glyph glyph-name="guilsinglleft.case" horiz-adv-x="284" 
d="M241 526l-142 -176l142 -176h-88l-122 155v42l122 155h88z" />
    <glyph glyph-name="guilsinglright.case" horiz-adv-x="284" 
d="M130 526l123 -155v-42l-123 -155h-87l141 176l-141 176h87z" />
    <glyph glyph-name="arrowup.ss01" 
d="M404 -12q-152 0 -256 100.5t-104 261.5t104 261.5t256 100.5t256 -100.5t104 -261.5t-104 -261.5t-256 -100.5zM234 323l144 141v-308h51v308l145 -141v69l-170 161l-170 -161v-69z" />
    <glyph glyph-name="uni2197.ss01" 
d="M404 -12q-152 0 -256 100.5t-104 261.5t104 261.5t256 100.5t256 -100.5t104 -261.5t-104 -261.5t-256 -100.5zM251 229l33 -33l222 221l-2 -204l48 50v233h-235l-48 -47l204 3z" />
    <glyph glyph-name="arrowright.ss01" 
d="M404 -12q-152 0 -256 100.5t-104 261.5t104 261.5t256 100.5t256 -100.5t104 -261.5t-104 -261.5t-256 -100.5zM217 327h301l-144 -146h69l161 169l-161 170h-69l143 -146h-300v-47z" />
    <glyph glyph-name="uni2198.ss01" 
d="M404 -12q-152 0 -256 100.5t-104 261.5t104 261.5t256 100.5t256 -100.5t104 -261.5t-104 -261.5t-256 -100.5zM251 471l222 -223l-204 3l48 -47h235v233l-48 50l2 -204l-222 221z" />
    <glyph glyph-name="arrowdown.ss01" 
d="M404 -12q-152 0 -256 100.5t-104 261.5t104 261.5t256 100.5t256 -100.5t104 -261.5t-104 -261.5t-256 -100.5zM234 377v-69l170 -161l170 161v69l-145 -141v308h-51v-308z" />
    <glyph glyph-name="uni2199.ss01" 
d="M404 -12q-152 0 -256 100.5t-104 261.5t104 261.5t256 100.5t256 -100.5t104 -261.5t-104 -261.5t-256 -100.5zM558 471l-34 33l-221 -221l2 204l-48 -50v-233h234l49 47l-204 -3z" />
    <glyph glyph-name="arrowleft.ss01" 
d="M404 -12q-152 0 -256 100.5t-104 261.5t104 261.5t256 100.5t256 -100.5t104 -261.5t-104 -261.5t-256 -100.5zM591 327v47h-300l143 146h-69l-160 -170l160 -169h69l-143 146h300z" />
    <glyph glyph-name="uni2196.ss01" 
d="M404 -12q-152 0 -256 100.5t-104 261.5t104 261.5t256 100.5t256 -100.5t104 -261.5t-104 -261.5t-256 -100.5zM558 229l-222 223l204 -3l-49 47h-234v-233l48 -50l-2 204l221 -221z" />
    <glyph glyph-name="arrowboth.ss01" 
d="M404 -12q-152 0 -256 100.5t-104 261.5t104 261.5t256 100.5t256 -100.5t104 -261.5t-104 -261.5t-256 -100.5zM156 350l130 -137h63l-113 115h337l-114 -115h63l130 137l-131 137h-62l114 -115h-337l113 115h-62z" />
    <glyph glyph-name="arrowupdn.ss01" 
d="M404 -12q-152 0 -256 100.5t-104 261.5t104 261.5t256 100.5t256 -100.5t104 -261.5t-104 -261.5t-256 -100.5zM267 233l137 -130l138 130v63l-114 -112v334l114 -112v62l-138 130l-137 -130v-62l113 111v-333l-113 112v-63z" />
    <glyph glyph-name="at.case" horiz-adv-x="868" 
d="M527 546h68v-224q0 -63 18.5 -93t60.5 -30q51 0 77 41t26 117q0 141 -97 239t-245 98q-143 0 -243.5 -101t-100.5 -246q0 -156 97 -252t257 -96q116 0 201 46l25 -35q-96 -51 -226 -51q-180 0 -289 105.5t-109 282.5q0 166 112 276.5t276 110.5q169 0 277.5 -107
t108.5 -267q0 -101 -42.5 -156t-117.5 -55q-99 0 -126 86q-20 -46 -56.5 -70.5t-80.5 -24.5q-69 0 -114.5 56t-45.5 151q0 97 45.5 153t115.5 56q87 0 128 -83v73zM416 194q51 0 81 41.5t30 111.5t-30 112t-81 42t-80.5 -42t-29.5 -112q0 -69 29.5 -111t80.5 -42z" />
    <glyph glyph-name="russianfonts" horiz-adv-x="606" 
d="M54 213q0 -65 13 -114q12 -51 32 -80.5t41 -29.5q38 0 85.5 44.5t88.5 121.5q41 78 60 148q2 6 8 31v-288l-34 -23v-23h173v23l-35 23v322l35 24v23h-139q-6 -22 -16 -49q-11 -32 -33 -91q-51 -128 -97 -176q-28 -30 -43 -30q-8 0 -8 40q0 47 17 115q17 65 54 127.5
t77 94.5q37 30 73 39.5t92 9.5h23v6q0 33 -16 72q-17 44 -48 72t-69 28q-66 0 -143 -46q-84 -49 -137.5 -155t-53.5 -259z" />
    </font>
</defs>
</svg>
