<?xml version="1.0" standalone="no"?>
<!DOCTYPE svg PUBLIC "-//W3C//DTD SVG 1.1//EN" "http://www.w3.org/Graphics/SVG/1.1/DTD/svg11.dtd" >
<svg xmlns="http://www.w3.org/2000/svg" xmlns:xlink="http://www.w3.org/1999/xlink" version="1.1">
<metadata>
Created by FontForge 20201107 at Wed Apr 11 17:01:58 2018
 By Unknown
Copyright (c) 2018 by Russian Fonts. All rights reserved.
</metadata>
<defs>
<font id="RFDewi-Semibold" horiz-adv-x="806" >
  <font-face 
    font-family="RF Dewi Semibold"
    font-weight="600"
    font-stretch="normal"
    units-per-em="1000"
    panose-1="0 0 7 0 0 0 0 0 0 0"
    ascent="800"
    descent="-200"
    x-height="524"
    cap-height="700"
    bbox="-196 -221 1156 941"
    underline-thickness="50"
    underline-position="-200"
    unicode-range="U+0020-277E"
  />
<missing-glyph horiz-adv-x="600" 
 />
    <glyph glyph-name="f_f.liga" unicode="ff" horiz-adv-x="665" 
d="M597 664q-41 0 -57.5 -18.5t-16.5 -63.5v-58h116v-81h-116v-443h-107v443h-191v-443h-107v443h-99v81h99v59q0 86 36 119.5t111 33.5q22 0 65 -5v-81q-40 2 -44 2q-34 0 -47.5 -18t-13.5 -66v-44h191v71q0 86 38 119.5t120 33.5q34 0 77 -5v-81q-44 2 -54 2z" />
    <glyph glyph-name="f_f_i.liga" unicode="ffi" horiz-adv-x="907" 
d="M416 595q0 85 36.5 119t111.5 34q34 0 72 -5v-81q-36 2 -47 2q-37 0 -51.5 -17.5t-14.5 -64.5v-58h113v-81h-113v-443h-107v443h-191v-443h-107v443h-99v81h99v59q0 86 36 119.5t111 33.5q22 0 65 -5v-81q-40 2 -44 2q-34 0 -47.5 -18t-13.5 -66v-44h191v71zM730 724h113
v-119h-113v119zM733 0v524h107v-524h-107z" />
    <glyph glyph-name="f_i.liga" unicode="fi" horiz-adv-x="609" 
d="M118 595q0 85 36.5 119t111.5 34q34 0 72 -5v-81q-36 2 -47 2q-37 0 -51.5 -17.5t-14.5 -64.5v-58h113v-81h-113v-443h-107v443h-99v81h99v71zM432 724h113v-119h-113v119zM435 0v524h107v-524h-107z" />
    <glyph glyph-name="f_l.liga" unicode="fl" horiz-adv-x="606" 
d="M118 595q0 85 36.5 119t111.5 34q34 0 72 -5v-81q-36 2 -47 2q-37 0 -51.5 -17.5t-14.5 -64.5v-58h113v-81h-113v-443h-107v443h-99v81h99v71zM433 736h107v-736h-107v736z" />
    <glyph glyph-name=".notdef" horiz-adv-x="600" 
 />
    <glyph glyph-name=".null" horiz-adv-x="0" 
 />
    <glyph glyph-name="nonmarkingreturn" horiz-adv-x="333" 
 />
    <glyph glyph-name="space" unicode=" " horiz-adv-x="237" 
 />
    <glyph glyph-name="exclam" unicode="!" horiz-adv-x="291" 
d="M189 215h-88l-12 485h112zM85 0v130h121v-130h-121z" />
    <glyph glyph-name="quotedbl" unicode="&#x22;" horiz-adv-x="357" 
d="M64 461l-9 239h93l-9 -239h-75zM218 461l-8 239h92l-8 -239h-76z" />
    <glyph glyph-name="numbersign" unicode="#" horiz-adv-x="595" 
d="M577 436h-118l-19 -171h109v-66h-117l-22 -201h-87l23 201h-130l-22 -201h-87l22 201h-111v66h119l19 171h-110v66h117l21 186h87l-21 -186h129l21 186h87l-21 -186h111v-66zM353 265l19 171h-130l-19 -171h130z" />
    <glyph glyph-name="dollar" unicode="$" horiz-adv-x="594" 
d="M556 185q0 -93 -62 -142t-170 -54v-85h-54v85q-228 14 -239 227l101 4q7 -132 138 -146v232l-73 24q-142 48 -142 182q0 91 60 138t155 51v84h54v-86q91 -10 147.5 -63t63.5 -141l-101 -6q-3 48 -31 81.5t-79 42.5v-218l74 -25q79 -26 118.5 -70t39.5 -115zM261 416l9 -3
v203q-52 -3 -79.5 -28t-27.5 -68q0 -71 98 -104zM324 74q55 4 89.5 29t34.5 75q0 37 -26.5 62t-86.5 44l-11 4v-214z" />
    <glyph glyph-name="percent" unicode="%" horiz-adv-x="805" 
d="M30 535q0 80 45 125.5t121 45.5q77 0 121.5 -45.5t44.5 -125.5t-44.5 -125.5t-121.5 -45.5q-76 0 -121 45.5t-45 125.5zM127 0l480 700h71l-480 -700h-71zM107 535q0 -51 24 -79.5t65 -28.5t65 28.5t24 79.5t-23.5 79.5t-65.5 28.5t-65.5 -28.5t-23.5 -79.5zM443 166
q0 79 44.5 125t121.5 46q78 0 122 -46t44 -125q0 -80 -44 -126t-122 -46q-77 0 -121.5 46t-44.5 126zM519 166q0 -51 24 -80t66 -29t66 29t24 80t-24.5 80t-65.5 29t-65.5 -29t-24.5 -80z" />
    <glyph glyph-name="ampersand" unicode="&#x26;" horiz-adv-x="643" 
d="M637 0h-112l-58 70q-74 -82 -201 -82q-113 0 -169.5 49t-56.5 131q0 29 8.5 53.5t17.5 40.5t33 37t36.5 29.5t47.5 32.5l26 19l-9 11q-50 61 -69 99.5t-19 72.5q0 71 49.5 110t129.5 39q83 0 130.5 -42t47.5 -115q0 -48 -24.5 -85.5t-81.5 -76.5l-33 -24l138 -165
q21 50 27 115h82q-14 -109 -53 -182zM278 432l4 -5l26 19q68 48 68 106q0 39 -23.5 62.5t-61.5 23.5q-33 0 -57.5 -20t-24.5 -58q0 -28 15.5 -55t53.5 -73zM271 66q93 0 145 66l-158 190l-29 -21q-44 -32 -64 -59.5t-20 -66.5q0 -48 31.5 -78.5t94.5 -30.5z" />
    <glyph glyph-name="quotesingle" unicode="'" horiz-adv-x="203" 
d="M64 461l-9 239h93l-9 -239h-75z" />
    <glyph glyph-name="parenleft" unicode="(" horiz-adv-x="328" 
d="M319 736q-163 -166 -163 -437q0 -270 163 -436h-91q-72 64 -122 173t-50 263t50 263.5t122 173.5h91z" />
    <glyph glyph-name="parenright" unicode=")" horiz-adv-x="328" 
d="M101 736q71 -65 121 -174t50 -263t-50 -262.5t-121 -173.5h-92q163 166 163 436q0 271 -163 437h92z" />
    <glyph glyph-name="asterisk" unicode="*" horiz-adv-x="379" 
d="M227 535l78 -32l55 -32l-31 -52l-55 33l-66 50l11 -82v-64h-60v64l11 82l-66 -50l-55 -33l-30 52l55 32l78 32l-78 32l-55 31l30 53l55 -33l66 -50l-11 82v64h60v-64l-11 -82l66 50l55 33l31 -53l-55 -31z" />
    <glyph glyph-name="plus" unicode="+" horiz-adv-x="497" 
d="M442 368v-73h-157v-152h-73v152h-157v73h157v152h73v-152h157z" />
    <glyph glyph-name="comma" unicode="," horiz-adv-x="247" 
d="M63 -120v250h121v-80l-73 -170h-48z" />
    <glyph glyph-name="hyphen" unicode="-" horiz-adv-x="374" 
d="M55 340h264v-83h-264v83z" />
    <glyph glyph-name="period" unicode="." horiz-adv-x="247" 
d="M63 0v130h121v-130h-121z" />
    <glyph glyph-name="slash" unicode="/" horiz-adv-x="400" 
d="M270 728h97l-253 -786h-97z" />
    <glyph glyph-name="zero" unicode="0" horiz-adv-x="627" 
d="M48 350q0 170 69 266t196 96q128 0 197 -96t69 -266t-69 -266t-197 -96q-127 0 -196 96t-69 266zM156 350q0 -130 41.5 -202t115.5 -72t116 72t42 202t-42 202t-116 72t-115.5 -72t-41.5 -202z" />
    <glyph glyph-name="one" unicode="1" horiz-adv-x="402" 
d="M210 700h87v-700h-108v578l-154 -102v106z" />
    <glyph glyph-name="two" unicode="2" horiz-adv-x="537" 
d="M161 88h347v-88h-493v81l227 226q53 51 76 76t44 62.5t21 72.5q0 51 -31 78.5t-81 27.5q-57 0 -93 -40.5t-43 -123.5l-104 8q9 122 74 183t166 61q96 0 158 -50.5t62 -143.5q0 -62 -33.5 -116.5t-116.5 -134.5z" />
    <glyph glyph-name="three" unicode="3" horiz-adv-x="562" 
d="M464 372q64 -54 64 -157q0 -110 -72 -168.5t-185 -58.5q-106 0 -173.5 53.5t-77.5 158.5l104 8q14 -132 147 -132q68 0 108.5 36.5t40.5 102.5q0 61 -37 97.5t-109 36.5q-44 0 -103 -12v75l199 200h-316v88h455v-79l-215 -199q111 -2 170 -50z" />
    <glyph glyph-name="four" unicode="4" horiz-adv-x="610" 
d="M476 248h106v-88h-106v-160h-108v160h-345v81l278 459h175v-452zM129 248h239v394z" />
    <glyph glyph-name="five" unicode="5" horiz-adv-x="571" 
d="M313 465q99 0 161 -62.5t62 -171.5q0 -116 -70.5 -179.5t-184.5 -63.5q-102 0 -172.5 51.5t-83.5 145.5l104 8q11 -57 53 -87t99 -30q64 0 105.5 40t41.5 115t-41.5 113.5t-105.5 38.5q-97 0 -144 -74l-95 8l29 383h426v-88h-345l-16 -219q66 72 177 72z" />
    <glyph glyph-name="six" unicode="6" horiz-adv-x="608" 
d="M343 456q100 0 164 -62t64 -170q0 -110 -69 -173t-185 -63q-269 0 -269 349q0 185 71 280t200 95q98 0 158 -52t69 -143l-104 -7q-5 51 -37.5 83t-85.5 32q-92 0 -135 -102q-27 -67 -28 -171q27 50 76 77t111 27zM317 75q66 0 105.5 40.5t39.5 108.5q0 67 -39.5 107.5
t-105.5 40.5t-105.5 -40.5t-39.5 -107.5q0 -68 39.5 -108.5t105.5 -40.5z" />
    <glyph glyph-name="seven" unicode="7" horiz-adv-x="546" 
d="M30 700h490v-75q-203 -309 -266 -625h-116q65 305 277 612h-385v88z" />
    <glyph glyph-name="eight" unicode="8" horiz-adv-x="602" 
d="M402 365q75 -19 118.5 -65.5t43.5 -115.5q0 -93 -75.5 -144.5t-187.5 -51.5q-113 0 -188 51.5t-75 144.5q0 70 44 116t120 65q-69 17 -108 59t-39 106q0 88 70.5 135t175.5 47t175 -47t70 -135q0 -128 -144 -165zM160 516q0 -53 38.5 -82.5t102.5 -29.5t102 29t38 83
q0 53 -38 82t-102 29t-102.5 -29t-38.5 -82zM301 73q69 0 113.5 32.5t44.5 91.5q0 58 -44.5 90.5t-113.5 32.5t-113.5 -32.5t-44.5 -90.5q0 -59 44.5 -91.5t113.5 -32.5z" />
    <glyph glyph-name="nine" unicode="9" horiz-adv-x="608" 
d="M289 712q271 0 271 -349q0 -186 -70 -280.5t-200 -94.5q-99 0 -159 51.5t-69 143.5l104 7q5 -51 37.5 -83t86.5 -32q92 0 134 103q27 67 27 175q-27 -50 -76 -76.5t-111 -26.5q-99 0 -163 61.5t-64 167.5q0 108 68.5 170.5t183.5 62.5zM291 334q66 0 105.5 40t39.5 105
q0 66 -39.5 106t-105.5 40t-106 -40.5t-40 -105.5t40 -105t106 -40z" />
    <glyph glyph-name="colon" unicode=":" horiz-adv-x="247" 
d="M63 382v130h121v-130h-121zM63 0v130h121v-130h-121z" />
    <glyph glyph-name="semicolon" unicode=";" horiz-adv-x="247" 
d="M63 382v130h121v-130h-121zM63 -120v250h121v-80l-73 -170h-48z" />
    <glyph glyph-name="less" unicode="&#x3c;" horiz-adv-x="489" 
d="M416 543v-88l-289 -124l289 -113v-88l-365 152v96z" />
    <glyph glyph-name="equal" unicode="=" horiz-adv-x="501" 
d="M57 447h387v-73h-387v73zM57 276h387v-73h-387v73z" />
    <glyph glyph-name="greater" unicode="&#x3e;" horiz-adv-x="489" 
d="M73 543l365 -165v-96l-365 -152v88l289 113l-289 124v88z" />
    <glyph glyph-name="question" unicode="?" horiz-adv-x="513" 
d="M263 712q95 0 156 -46t61 -138q0 -58 -27.5 -101t-88.5 -89q-43 -31 -57.5 -51.5t-14.5 -56.5v-12h-103v16q0 58 18 89t65 64q33 24 51 40.5t34 43t16 56.5q0 48 -30 72t-80 24q-63 0 -99.5 -38t-43.5 -113l-101 7q8 116 74 174.5t170 58.5zM180 0v130h121v-130h-121z
" />
    <glyph glyph-name="at" unicode="@" horiz-adv-x="866" 
d="M519 464h81v-228q0 -58 17 -85.5t56 -27.5q97 0 97 151q0 138 -95 234.5t-242 96.5q-141 0 -239 -99t-98 -242q0 -154 95 -248t252 -94q117 0 200 46l28 -39q-94 -52 -228 -52q-180 0 -288.5 105t-108.5 282q0 166 111.5 276t275.5 110q170 0 278.5 -106.5t108.5 -266.5
q0 -102 -43.5 -157t-120.5 -55q-97 0 -127 82q-21 -45 -57.5 -68.5t-79.5 -23.5q-70 0 -116 56.5t-46 152.5q0 97 46 153.5t116 56.5q85 0 127 -79v69zM414 120q48 0 76.5 39t28.5 105t-28.5 105.5t-76.5 39.5t-76 -39.5t-28 -105.5t28 -105t76 -39z" />
    <glyph glyph-name="A" unicode="A" horiz-adv-x="681" 
d="M549 0l-57 175h-306l-58 -175h-111l238 700h171l238 -700h-115zM214 261h249l-124 379z" />
    <glyph glyph-name="B" unicode="B" horiz-adv-x="675" 
d="M418 359q98 -6 157 -49.5t59 -124.5q0 -89 -68 -137t-177 -48h-307v700h302q103 0 166.5 -44t63.5 -132q0 -151 -196 -165zM194 613v-215h184q59 0 91.5 29t32.5 80q0 50 -34 78t-95 28h-179zM379 87q69 0 106 29.5t37 83.5q0 53 -35.5 83.5t-101.5 30.5h-191v-227h185z
" />
    <glyph glyph-name="C" unicode="C" horiz-adv-x="679" 
d="M43 350q0 163 81 262.5t227 99.5q120 0 196 -63.5t90 -171.5l-106 -9q-10 69 -59.5 111t-120.5 42q-96 0 -146 -78t-50 -193q0 -118 54 -194.5t150 -76.5q76 0 123 46.5t56 117.5l107 -7q-14 -114 -87.5 -181t-198.5 -67q-151 0 -233.5 98.5t-82.5 263.5z" />
    <glyph glyph-name="D" unicode="D" horiz-adv-x="703" 
d="M82 0v700h266q150 0 231 -92.5t81 -257.5t-81 -257.5t-231 -92.5h-266zM194 92h143q102 0 156.5 69t54.5 189t-54.5 189t-156.5 69h-143v-516z" />
    <glyph glyph-name="E" unicode="E" horiz-adv-x="623" 
d="M82 0v700h485v-88h-373v-214h294v-84h-294v-226h387v-88h-499z" />
    <glyph glyph-name="F" unicode="F" horiz-adv-x="591" 
d="M82 0v700h472v-92h-360v-222h290v-90h-290v-296h-112z" />
    <glyph glyph-name="G" unicode="G" horiz-adv-x="694" 
d="M43 350q0 163 81 262.5t227 99.5q115 0 190 -59t94 -161l-107 -10q-14 63 -62 101t-115 38q-96 0 -146 -78t-50 -193q0 -120 59 -195.5t168 -75.5q86 0 163 38v168h-185v77h287v-307q-132 -67 -268 -67q-163 0 -249.5 99t-86.5 263z" />
    <glyph glyph-name="H" unicode="H" horiz-adv-x="726" 
d="M532 700h112v-700h-112v310h-338v-310h-112v700h112v-298h338v298z" />
    <glyph glyph-name="I" unicode="I" horiz-adv-x="276" 
d="M82 0v700h112v-700h-112z" />
    <glyph glyph-name="J" unicode="J" horiz-adv-x="578" 
d="M38 207v67h104v-65q0 -63 33 -96.5t89 -33.5t88 35t32 105v481h112v-488q0 -111 -61 -167.5t-169 -56.5q-109 0 -168.5 57.5t-59.5 161.5z" />
    <glyph glyph-name="K" unicode="K" horiz-adv-x="680" 
d="M660 0h-133l-238 310h-95v-310h-112v700h112v-303h94l221 303h130l-264 -339z" />
    <glyph glyph-name="L" unicode="L" horiz-adv-x="562" 
d="M82 0v700h112v-608h336v-92h-448z" />
    <glyph glyph-name="M" unicode="M" horiz-adv-x="920" 
d="M644 700h194v-700h-108v635l-194 -635h-152l-195 635v-635h-107v700h196l183 -636z" />
    <glyph glyph-name="N" unicode="N" horiz-adv-x="738" 
d="M549 700h107v-700h-188l-279 632v-632h-107v700h188l279 -632v632z" />
    <glyph glyph-name="O" unicode="O" horiz-adv-x="728" 
d="M43 350q0 164 83.5 263t237.5 99t237.5 -99t83.5 -263t-83.5 -263t-237.5 -99t-237.5 99t-83.5 263zM155 350q0 -120 55 -195.5t154 -75.5t154 75.5t55 195.5t-55 195.5t-154 75.5t-154 -75.5t-55 -195.5z" />
    <glyph glyph-name="P" unicode="P" horiz-adv-x="651" 
d="M82 0v700h288q105 0 174 -53t69 -163t-67 -160.5t-173 -50.5h-179v-273h-112zM194 359h163q67 0 105.5 31t38.5 94q0 62 -38.5 93t-105.5 31h-163v-249z" />
    <glyph glyph-name="Q" unicode="Q" horiz-adv-x="728" 
d="M685 350q0 -209 -127 -303l67 -89l-74 -48l-72 96q-51 -18 -115 -18q-154 0 -237.5 99t-83.5 263t83.5 263t237.5 99t237.5 -99t83.5 -263zM364 79q24 0 54 7l-52 69l74 49l56 -74q77 74 77 220q0 120 -55 195.5t-154 75.5t-154 -75.5t-55 -195.5t55 -195.5t154 -75.5z
" />
    <glyph glyph-name="R" unicode="R" horiz-adv-x="675" 
d="M650 0h-135l-197 281h-124v-281h-112v700h296q105 0 174.5 -52.5t69.5 -159.5q0 -92 -51 -142.5t-135 -60.5zM194 365h172q67 0 105.5 31t38.5 92q0 60 -38.5 91t-105.5 31h-172v-245z" />
    <glyph glyph-name="S" unicode="S" horiz-adv-x="619" 
d="M31 220l105 4q7 -148 178 -148q67 0 111 25t44 79q0 38 -27 62.5t-91 45.5l-145 47q-150 48 -150 184q0 96 68.5 144.5t172.5 48.5q112 0 183.5 -55.5t78.5 -154.5l-104 -7q-4 59 -44.5 94t-114.5 35q-61 0 -94.5 -25.5t-33.5 -71.5q0 -71 103 -104l145 -46
q83 -26 124 -71t41 -118q0 -100 -72 -150t-196 -50q-133 0 -205 59.5t-77 172.5z" />
    <glyph glyph-name="T" unicode="T" horiz-adv-x="596" 
d="M24 608v92h548v-92h-218v-608h-112v608h-218z" />
    <glyph glyph-name="U" unicode="U" horiz-adv-x="730" 
d="M82 267v433h112v-424q0 -100 42 -148t129 -48q171 0 171 196v424h112v-433q0 -279 -283 -279t-283 279z" />
    <glyph glyph-name="V" unicode="V" horiz-adv-x="657" 
d="M522 700h116l-227 -700h-167l-225 700h118l192 -631z" />
    <glyph glyph-name="W" unicode="W" horiz-adv-x="975" 
d="M834 700h117l-168 -700h-167l-129 620l-131 -620h-168l-164 700h120l133 -616l132 616h159l130 -616z" />
    <glyph glyph-name="X" unicode="X" horiz-adv-x="662" 
d="M24 0l242 356l-223 344h129l158 -256l159 256h124l-222 -339l245 -361h-130l-179 273l-180 -273h-123z" />
    <glyph glyph-name="Y" unicode="Y" horiz-adv-x="668" 
d="M531 700h122l-263 -416v-284h-112v283l-263 417h128l191 -326z" />
    <glyph glyph-name="Z" unicode="Z" horiz-adv-x="590" 
d="M158 92h407v-92h-545v78l397 530h-374v92h512v-78z" />
    <glyph glyph-name="bracketleft" unicode="[" horiz-adv-x="309" 
d="M284 647h-101v-700h101v-84h-198v868h198v-84z" />
    <glyph glyph-name="backslash" unicode="\" horiz-adv-x="400" 
d="M130 728l253 -786h-97l-253 786h97z" />
    <glyph glyph-name="bracketright" unicode="]" horiz-adv-x="309" 
d="M223 731v-868h-198v84h102v700h-102v84h198z" />
    <glyph glyph-name="asciicircum" unicode="^" horiz-adv-x="399" 
d="M377 459h-83l-94 199l-95 -199h-83l127 241h100z" />
    <glyph glyph-name="underscore" unicode="_" horiz-adv-x="402" 
d="M13 -38h376v-72h-376v72z" />
    <glyph glyph-name="grave" unicode="`" horiz-adv-x="268" 
d="M228 590h-83l-105 145h111z" />
    <glyph glyph-name="a" unicode="a" horiz-adv-x="567" 
d="M40 139q0 144 211 164l148 14v40q0 46 -28.5 74t-85.5 28q-51 0 -84 -23.5t-36 -68.5h-98q3 87 63 128t155 41q107 0 164 -51t57 -150v-335h-99v102q-25 -54 -75 -84t-121 -30q-85 0 -128 42t-43 109zM146 144q0 -36 24.5 -58.5t73.5 -22.5q71 0 113 44.5t42 114.5v28
l-134 -13q-119 -12 -119 -93z" />
    <glyph glyph-name="b" unicode="b" horiz-adv-x="605" 
d="M66 0v736h107v-303q26 49 71.5 76t101.5 27q98 0 159.5 -73.5t61.5 -200.5t-61.5 -200.5t-158.5 -73.5q-61 0 -108.5 31t-73.5 88v-107h-99zM168 262q0 -86 39.5 -138t106.5 -52q68 0 107.5 52t39.5 138t-39.5 138t-107.5 52q-67 0 -106.5 -52t-39.5 -138z" />
    <glyph glyph-name="c" unicode="c" horiz-adv-x="558" 
d="M38 262q0 131 67 202.5t182 71.5q94 0 158 -49.5t76 -139.5l-103 -9q-10 56 -45.5 85t-85.5 29q-65 0 -104 -50t-39 -140t39.5 -140t106.5 -50q53 0 88.5 30.5t45.5 88.5l103 -8q-12 -93 -76.5 -144t-160.5 -51q-117 0 -184.5 71t-67.5 203z" />
    <glyph glyph-name="d" unicode="d" horiz-adv-x="605" 
d="M38 262q0 127 61.5 200.5t159.5 73.5q56 0 101 -27t72 -76v303h107v-736h-99v107q-26 -57 -74 -88t-108 -31q-97 0 -158.5 73.5t-61.5 200.5zM144 262q0 -86 39.5 -138t106.5 -52q68 0 107.5 52t39.5 138t-39.5 138t-107.5 52q-67 0 -106.5 -52t-39.5 -138z" />
    <glyph glyph-name="e" unicode="e" horiz-adv-x="575" 
d="M38 262q0 135 70 204.5t186 69.5q245 0 245 -292v-13h-394q6 -81 47.5 -123.5t108.5 -42.5q95 0 129 81l102 -7q-21 -71 -80.5 -111t-150.5 -40q-121 0 -192 69t-71 205zM146 301h287q-3 74 -40 116t-99 42t-101.5 -40t-46.5 -118z" />
    <glyph glyph-name="f" unicode="f" horiz-adv-x="367" 
d="M19 443v81h99v71q0 86 38 119.5t120 33.5q34 0 77 -5v-81q-44 2 -54 2q-42 0 -58 -18.5t-16 -63.5v-58h116v-81h-116v-443h-107v443h-99z" />
    <glyph glyph-name="g" unicode="g" horiz-adv-x="601" 
d="M38 273q0 119 62.5 191t160.5 72q58 0 103.5 -28t71.5 -78v94h99v-477q0 -134 -58 -196.5t-182 -62.5q-102 0 -161.5 43.5t-62.5 130.5h99q3 -45 35.5 -69t89.5 -24q71 0 102 37.5t31 113.5v83q-54 -93 -166 -93q-99 0 -161.5 72t-62.5 191zM144 270q0 -81 40 -130
t106 -49q67 0 107 49t40 130q0 82 -40 132t-107 50q-66 0 -106 -50t-40 -132z" />
    <glyph glyph-name="h" unicode="h" horiz-adv-x="591" 
d="M66 0v736h107v-295q51 95 177 95q88 0 134 -49.5t46 -145.5v-341h-107v307q0 141 -112 141q-66 0 -102 -43.5t-36 -119.5v-285h-107z" />
    <glyph glyph-name="i" unicode="i" horiz-adv-x="242" 
d="M64 605v119h113v-119h-113zM67 0v524h107v-524h-107z" />
    <glyph glyph-name="j" unicode="j" horiz-adv-x="242" 
d="M65 605v119h113v-119h-113zM-33 -208v86q16 -2 40 -2q34 0 47.5 15.5t13.5 61.5v571h107v-598q0 -75 -30.5 -106.5t-103.5 -31.5q-24 0 -74 4z" />
    <glyph glyph-name="k" unicode="k" horiz-adv-x="559" 
d="M549 0h-133l-181 223h-62v-223h-107v736h107v-429h64l171 217h127l-222 -250z" />
    <glyph glyph-name="l" unicode="l" horiz-adv-x="239" 
d="M66 736h107v-736h-107v736z" />
    <glyph glyph-name="m" unicode="m" horiz-adv-x="890" 
d="M66 0v524h99v-95q48 107 170 107q124 0 156 -112q22 54 67 83t105 29q78 0 122.5 -48.5t44.5 -137.5v-350h-107v322q0 58 -25.5 92t-73.5 34q-57 0 -90 -43t-33 -120v-285h-107v322q0 59 -25 92.5t-74 33.5q-56 0 -89 -43t-33 -120v-285h-107z" />
    <glyph glyph-name="n" unicode="n" horiz-adv-x="591" 
d="M66 0v524h99v-97q50 109 185 109q88 0 134 -49.5t46 -145.5v-341h-107v307q0 141 -112 141q-66 0 -102 -43.5t-36 -119.5v-285h-107z" />
    <glyph glyph-name="o" unicode="o" horiz-adv-x="589" 
d="M38 262q0 127 69.5 200.5t186.5 73.5q118 0 187.5 -73.5t69.5 -200.5t-69.5 -200.5t-187.5 -73.5q-117 0 -186.5 73.5t-69.5 200.5zM144 262q0 -86 40.5 -138t109.5 -52t110 52t41 138t-41 138t-110 52t-109.5 -52t-40.5 -138z" />
    <glyph glyph-name="p" unicode="p" horiz-adv-x="605" 
d="M66 -200v724h99v-105q25 56 73 86.5t108 30.5q98 0 159.5 -73.5t61.5 -200.5t-61.5 -200.5t-158.5 -73.5q-118 0 -174 105v-293h-107zM168 262q0 -86 39.5 -138t106.5 -52q68 0 107.5 52t39.5 138t-39.5 138t-107.5 52q-67 0 -106.5 -52t-39.5 -138z" />
    <glyph glyph-name="q" unicode="q" horiz-adv-x="605" 
d="M38 262q0 127 61.5 200.5t159.5 73.5q60 0 108 -30.5t73 -86.5v105h99v-724h-107v293q-27 -51 -72.5 -78t-101.5 -27q-97 0 -158.5 73.5t-61.5 200.5zM144 262q0 -86 39.5 -138t106.5 -52q68 0 107.5 52t39.5 138t-39.5 138t-107.5 52q-67 0 -106.5 -52t-39.5 -138z" />
    <glyph glyph-name="r" unicode="r" horiz-adv-x="412" 
d="M321 534q32 0 59 -7v-95q-38 7 -73 7q-68 0 -101 -43.5t-33 -135.5v-260h-107v524h99v-105q43 115 156 115z" />
    <glyph glyph-name="s" unicode="s" horiz-adv-x="509" 
d="M23 153l98 4q10 -92 133 -92q56 0 88 18t32 52q0 26 -21.5 43t-73.5 32l-114 33q-126 36 -126 147q0 75 55.5 110.5t145.5 35.5q94 0 156 -39.5t71 -119.5l-98 -5q-7 43 -41.5 65t-87.5 22q-45 1 -70.5 -16.5t-25.5 -49.5q0 -49 81 -73l114 -32q140 -38 140 -148
q0 -75 -61 -113.5t-166 -38.5q-216 0 -229 165z" />
    <glyph glyph-name="t" unicode="t" horiz-adv-x="395" 
d="M361 443h-127v-282q0 -47 13.5 -64t52.5 -17q26 0 61 5v-86q-45 -7 -81 -7q-82 0 -117.5 34.5t-35.5 117.5v299h-109v79h82q18 0 25.5 7.5t7.5 24.5v87h101v-117h127v-81z" />
    <glyph glyph-name="u" unicode="u" horiz-adv-x="591" 
d="M418 524h107v-524h-99v104q-51 -116 -185 -116q-87 0 -133.5 51.5t-46.5 149.5v335h107v-302q0 -146 113 -146q65 0 101 48t36 125v275z" />
    <glyph glyph-name="v" unicode="v" horiz-adv-x="554" 
d="M423 524h114l-180 -524h-161l-179 524h115l145 -462z" />
    <glyph glyph-name="w" unicode="w" horiz-adv-x="861" 
d="M724 524h115l-153 -524h-151l-103 470l-106 -470h-153l-151 524h118l115 -447l104 447h149l100 -438z" />
    <glyph glyph-name="x" unicode="x" horiz-adv-x="568" 
d="M547 0h-128l-138 192l-137 -192h-123l199 265l-190 259h129l125 -185l126 185h123l-187 -256z" />
    <glyph glyph-name="y" unicode="y" horiz-adv-x="560" 
d="M428 524h114l-186 -577q-26 -91 -67 -125t-124 -34q-31 0 -64 4v82q40 -2 57 -2q42 0 64 18.5t37 70.5l12 39h-62l-191 524h115l162 -481z" />
    <glyph glyph-name="z" unicode="z" horiz-adv-x="494" 
d="M156 84h314v-84h-450v74l307 366h-287v84h422v-74z" />
    <glyph glyph-name="braceleft" unicode="{" horiz-adv-x="337" 
d="M221 440q0 -123 -107 -141v-4q107 -18 107 -141v-117q0 -53 20.5 -76.5t62.5 -23.5h8v-74h-12q-84 0 -127 37.5t-43 129.5v112q0 118 -87 118h-9v74h9q87 0 87 118v112q0 92 43 129.5t127 37.5h12v-74h-8q-42 0 -62.5 -23.5t-20.5 -76.5v-117z" />
    <glyph glyph-name="bar" unicode="|" horiz-adv-x="243" 
d="M82 736h80v-857h-80v857z" />
    <glyph glyph-name="braceright" unicode="}" horiz-adv-x="337" 
d="M294 334h8v-74h-8q-87 0 -87 -118v-112q0 -92 -43 -129.5t-127 -37.5h-12v74h8q42 0 62.5 23.5t20.5 76.5v117q0 123 107 141v4q-107 18 -107 141v117q0 53 -20.5 76.5t-62.5 23.5h-8v74h12q84 0 127 -37.5t43 -129.5v-112q0 -118 87 -118z" />
    <glyph glyph-name="asciitilde" unicode="~" horiz-adv-x="567" 
d="M429 404h65q0 -60 -26.5 -99.5t-85.5 -39.5q-40 0 -75 20.5t-63 41t-52 20.5q-26 0 -40 -19t-14 -50h-65q0 61 26.5 100.5t85.5 39.5q40 0 75 -21t63 -41.5t52 -20.5q26 0 40 19.5t14 49.5z" />
    <glyph glyph-name="uni00A0" unicode="&#xa0;" horiz-adv-x="237" 
 />
    <glyph glyph-name="exclamdown" unicode="&#xa1;" horiz-adv-x="291" 
d="M85 524h121v-130h-121v130zM189 309l12 -485h-112l12 485h88z" />
    <glyph glyph-name="cent" unicode="&#xa2;" horiz-adv-x="548" 
d="M517 176q-13 -84 -69 -132.5t-140 -54.5v-75h-50v75q-103 8 -161.5 79t-58.5 194q0 124 59 194.5t161 78.5v75h50v-75q81 -7 135.5 -53.5t67.5 -127.5l-97 -8q-19 94 -106 109v-387q43 6 72.5 35.5t39.5 79.5zM137 262q0 -82 32.5 -132t88.5 -61v386q-56 -9 -88.5 -59.5
t-32.5 -133.5z" />
    <glyph glyph-name="sterling" unicode="&#xa3;" horiz-adv-x="538" 
d="M116 88h403v-88h-502v77q96 91 96 189q0 22 -5 52h-79v60h65q-16 68 -16 114q0 101 57.5 154.5t157.5 53.5q190 0 207 -207l-103 -8q-9 127 -104 127q-50 0 -78 -34.5t-28 -97.5q0 -36 14 -102h188v-60h-174q6 -30 6 -57q0 -94 -105 -173z" />
    <glyph glyph-name="currency" unicode="&#xa4;" horiz-adv-x="602" 
d="M568 93l-58 -58l-77 77q-56 -35 -132 -35t-132 35l-76 -76l-58 58l75 76q-37 56 -37 132q0 77 37 133l-76 76l57 58l78 -77q55 35 132 35q76 0 132 -35l76 76l58 -58l-75 -75q36 -56 36 -133q0 -78 -37 -133zM164 302q0 -65 37 -103t100 -38t99.5 38t36.5 103t-36.5 103
t-99.5 38t-100 -38t-37 -103z" />
    <glyph glyph-name="yen" unicode="&#xa5;" horiz-adv-x="633" 
d="M370 313v-5h187v-56h-187v-62h187v-56h-187v-134h-108v134h-186v56h186v62h-186v56h186v6l-247 374h123l179 -293l182 293h119z" />
    <glyph glyph-name="brokenbar" unicode="&#xa6;" horiz-adv-x="243" 
d="M82 736h80v-342h-80v342zM82 237h80v-358h-80v358z" />
    <glyph glyph-name="section" unicode="&#xa7;" horiz-adv-x="509" 
d="M385 191q81 -42 81 -131q0 -76 -54.5 -115.5t-148.5 -39.5q-92 0 -150 42t-64 127l92 3q5 -49 37.5 -74t84.5 -25q45 0 75 20t30 57q0 29 -20.5 48t-71.5 34l-113 34q-60 18 -92 55t-32 87q0 83 91 121q-73 43 -73 130q0 75 53 111.5t134 36.5q84 0 141 -40.5t65 -121.5
l-91 -5q-6 47 -38 71t-77 24q-39 1 -63.5 -18.5t-24.5 -54.5q0 -56 77 -80l108 -33q133 -40 133 -144q0 -79 -89 -119zM219 244l95 -28q66 25 66 78q0 57 -96 87l-81 25q-70 -20 -70 -77q0 -60 86 -85z" />
    <glyph glyph-name="dieresis" unicode="&#xa8;" horiz-adv-x="355" 
d="M40 605v111h97v-111h-97zM218 605v111h97v-111h-97z" />
    <glyph glyph-name="copyright" unicode="&#xa9;" horiz-adv-x="810" 
d="M405 -12q-158 0 -260 99.5t-102 262.5t102 262.5t260 99.5t260 -99.5t102 -262.5t-102 -262.5t-260 -99.5zM405 42q132 0 217 88t85 220t-85 220t-217 88t-217 -88t-85 -220t85 -220t217 -88zM239 350q0 97 45 149.5t123 52.5q64 0 107.5 -36.5t51.5 -102.5l-71 -6
q-7 42 -30.5 64t-57.5 22q-43 0 -68.5 -38t-25.5 -105t26 -105t71 -38q35 0 58.5 23.5t30.5 66.5l71 -5q-7 -68 -51 -106t-109 -38q-80 0 -125.5 53t-45.5 149z" />
    <glyph glyph-name="guillemotleft" unicode="&#xab;" horiz-adv-x="480" 
d="M257 459l-144 -179l144 -179h-104l-124 156v46l124 156h104zM439 459l-144 -179l144 -179h-104l-124 156v46l124 156h104z" />
    <glyph glyph-name="logicalnot" unicode="&#xac;" horiz-adv-x="513" 
d="M63 370h377v-190h-78v116h-299v74z" />
    <glyph glyph-name="registered" unicode="&#xae;" horiz-adv-x="570" 
d="M285 212q-105 0 -177.5 71t-72.5 179t72.5 179t177.5 71t177.5 -71t72.5 -179t-72.5 -179t-177.5 -71zM285 251q89 0 149 60.5t60 150.5t-60 150.5t-149 60.5q-90 0 -149.5 -60.5t-59.5 -150.5t59.5 -150.5t149.5 -60.5zM211 336v259h90q31 0 51.5 -19.5t20.5 -59.5
q0 -65 -50 -76l57 -104h-49l-52 102h-27v-102h-41zM252 472h42q37 0 37 44q0 43 -36 43h-43v-87z" />
    <glyph glyph-name="macron" unicode="&#xaf;" horiz-adv-x="377" 
d="M40 620v73h297v-73h-297z" />
    <glyph glyph-name="degree" unicode="&#xb0;" horiz-adv-x="374" 
d="M187 386q-69 0 -114.5 44.5t-45.5 118.5t45.5 118.5t114.5 44.5t115 -44.5t46 -118.5t-46 -118.5t-115 -44.5zM187 453q39 0 65 27t26 69t-26 69t-65 27t-64.5 -27t-25.5 -69t25.5 -69t64.5 -27z" />
    <glyph glyph-name="plusminus" unicode="&#xb1;" horiz-adv-x="525" 
d="M299 422h157v-72h-157v-123h-73v123h-157v72h157v137h73v-137zM69 92v72h387v-72h-387z" />
    <glyph glyph-name="uni00B2" unicode="&#xb2;" horiz-adv-x="371" 
d="M130 400h216v-69h-329v63l142 129q35 31 49 45t28 36.5t14 43.5q0 27 -17.5 42t-45.5 15q-69 0 -77 -92l-82 6q6 78 49 116.5t110 38.5q64 0 105.5 -32.5t41.5 -93.5q0 -38 -21 -72t-75 -81z" />
    <glyph glyph-name="uni00B3" unicode="&#xb3;" horiz-adv-x="388" 
d="M301 573q55 -32 55 -105q0 -70 -49 -106t-125 -36q-72 0 -117.5 33.5t-52.5 100.5l82 5q10 -71 88 -71q41 0 65 19.5t24 54.5q0 32 -22 51.5t-66 19.5q-32 0 -68 -7v57l120 107h-200v68h308v-61l-136 -107q56 -2 94 -23z" />
    <glyph glyph-name="acute" unicode="&#xb4;" horiz-adv-x="268" 
d="M40 590l77 145h111l-105 -145h-83z" />
    <glyph glyph-name="paragraph" unicode="&#xb6;" horiz-adv-x="558" 
d="M50 508q0 87 54.5 139.5t146.5 52.5h57v-791h-68v407q-86 0 -138 53.5t-52 138.5zM396 700h68v-791h-68v791z" />
    <glyph glyph-name="periodcentered" unicode="&#xb7;" horiz-adv-x="247" 
d="M63 245v130h121v-130h-121z" />
    <glyph glyph-name="cedilla" unicode="&#xb8;" horiz-adv-x="287" 
d="M161 -50q33 0 59.5 -19.5t26.5 -59.5q0 -42 -30.5 -62t-72.5 -20t-69.5 18.5t-34.5 52.5l49 3q8 -32 46 -32q44 0 44 40q0 20 -12 30.5t-30 10.5q-16 0 -40 -11l-40 18l45 81h44l-35 -62q28 12 50 12z" />
    <glyph glyph-name="uni00B9" unicode="&#xb9;" horiz-adv-x="287" 
d="M132 764h69v-431h-85v334l-81 -64v85z" />
    <glyph glyph-name="guillemotright" unicode="&#xbb;" horiz-adv-x="480" 
d="M145 459l124 -156v-46l-124 -156h-104l145 179l-145 179h104zM327 459l124 -156v-46l-124 -156h-104l145 179l-145 179h104z" />
    <glyph glyph-name="onequarter" unicode="&#xbc;" horiz-adv-x="732" 
d="M105 340v274l-78 -48v76l92 58h58v-360h-72zM531 700h79l-480 -700h-79zM648 138h63v-59h-63v-79h-72v79h-204v54l158 227h118v-222zM443 138h133v188z" />
    <glyph glyph-name="onehalf" unicode="&#xbd;" horiz-adv-x="743" 
d="M105 340v274l-78 -48v76l92 58h58v-360h-72zM531 700h79l-480 -700h-79zM526 59h192v-59h-288v54l125 108q42 34 60.5 56t18.5 47q0 22 -15 35t-41 13q-61 0 -68 -77l-70 6q5 65 42.5 97.5t95.5 32.5q56 0 92.5 -27.5t36.5 -79.5q0 -32 -19 -61t-65 -66z" />
    <glyph glyph-name="threequarters" unicode="&#xbe;" horiz-adv-x="831" 
d="M320 449q0 -60 -44 -90.5t-112 -30.5q-64 0 -104.5 28.5t-47.5 85.5l72 5q7 -61 80 -61q37 0 60 16.5t23 46.5q0 27 -20.5 43.5t-60.5 16.5q-24 0 -63 -7v50l111 90h-182v58h277v-53l-124 -88q59 -1 95 -25q40 -28 40 -85zM630 700h79l-480 -700h-79zM747 138h63v-59h-63
v-79h-72v79h-204v54l158 227h118v-222zM542 138h133v188z" />
    <glyph glyph-name="questiondown" unicode="&#xbf;" horiz-adv-x="513" 
d="M333 524v-130h-121v130h121zM250 -188q-95 0 -156 46t-61 138q0 59 27.5 102t88.5 88q43 31 57.5 51.5t14.5 56.5v12h103v-16q0 -57 -18 -88.5t-65 -64.5q-33 -24 -51 -40.5t-34 -43t-16 -56.5q0 -48 30 -72t80 -24q63 0 99.5 38t43.5 113l101 -7q-9 -116 -74.5 -174.5
t-169.5 -58.5z" />
    <glyph glyph-name="Agrave" unicode="&#xc0;" horiz-adv-x="681" 
d="M387 762h-84l-114 118h111zM549 0l-57 175h-306l-58 -175h-111l238 700h171l238 -700h-115zM339 639l-125 -378h249z" />
    <glyph glyph-name="Aacute" unicode="&#xc1;" horiz-adv-x="681" 
d="M494 880l-114 -118h-84l87 118h111zM549 0l-57 175h-306l-58 -175h-111l238 700h171l238 -700h-115zM339 639l-125 -378h249z" />
    <glyph glyph-name="Acircumflex" unicode="&#xc2;" horiz-adv-x="681" 
d="M341 849l-83 -85h-79l100 119h123l100 -119h-78zM549 0l-57 175h-306l-58 -175h-111l238 700h171l238 -700h-115zM339 639l-125 -378h249z" />
    <glyph glyph-name="Atilde" unicode="&#xc3;" horiz-adv-x="681" 
d="M278 810q-33 0 -33 -44h-57q0 105 83 105q37 0 77 -26t55 -26q33 0 33 44h58q0 -105 -84 -105q-36 0 -76 26t-56 26zM549 0l-57 175h-306l-58 -175h-111l238 700h171l238 -700h-115zM339 639l-125 -378h249z" />
    <glyph glyph-name="Adieresis" unicode="&#xc4;" horiz-adv-x="681" 
d="M295 864v-101h-107v101h107zM493 864v-101h-106v101h106zM549 0l-57 175h-306l-58 -175h-111l238 700h171l238 -700h-115zM339 639l-125 -378h249z" />
    <glyph glyph-name="Aring" unicode="&#xc5;" horiz-adv-x="681" 
d="M341 746q-44 0 -75.5 25.5t-31.5 72.5t31.5 72t75.5 25t75.5 -25t31.5 -72t-31.5 -72.5t-75.5 -25.5zM341 893q-23 0 -38.5 -13.5t-15.5 -35.5q0 -23 15.5 -36.5t38.5 -13.5t38.5 13.5t15.5 36.5q0 22 -15.5 35.5t-38.5 13.5zM549 0l-57 175h-306l-58 -175h-111l238 700
h171l238 -700h-115zM339 639l-125 -378h249z" />
    <glyph glyph-name="AE" unicode="&#xc6;" horiz-adv-x="1021" 
d="M11 0l365 700h589v-88h-373v-214h294v-84h-294v-226h387v-88h-499v175h-260l-90 -175h-119zM261 261h219v351h-38z" />
    <glyph glyph-name="Ccedilla" unicode="&#xc7;" horiz-adv-x="679" 
d="M359 -12h-10l-29 -50q24 12 51 12q33 0 59 -19.5t26 -59.5q0 -42 -30.5 -62t-72.5 -20t-69.5 18.5t-34.5 52.5l49 3q8 -32 46 -32q44 0 44 40q0 20 -12 30.5t-30 10.5q-16 0 -40 -11l-40 18l40 73q-126 17 -194.5 112.5t-68.5 245.5q0 163 81 262.5t227 99.5
q120 0 196 -63.5t90 -171.5l-106 -9q-10 69 -59.5 111t-120.5 42q-96 0 -146 -78t-50 -193q0 -118 54 -194.5t150 -76.5q76 0 123 46.5t56 117.5l107 -7q-14 -114 -87.5 -181t-198.5 -67z" />
    <glyph glyph-name="Egrave" unicode="&#xc8;" horiz-adv-x="623" 
d="M362 762h-84l-114 118h111zM82 0v700h485v-88h-373v-214h294v-84h-294v-226h387v-88h-499z" />
    <glyph glyph-name="Eacute" unicode="&#xc9;" horiz-adv-x="623" 
d="M266 762l88 118h110l-113 -118h-85zM82 0v700h485v-88h-373v-214h294v-84h-294v-226h387v-88h-499z" />
    <glyph glyph-name="Ecircumflex" unicode="&#xca;" horiz-adv-x="623" 
d="M476 764h-79l-83 85l-83 -85h-78l100 119h123zM82 0v700h485v-88h-373v-214h294v-84h-294v-226h387v-88h-499z" />
    <glyph glyph-name="Edieresis" unicode="&#xcb;" horiz-adv-x="623" 
d="M162 763v101h107v-101h-107zM360 763v101h107v-101h-107zM82 0v700h485v-88h-373v-214h294v-84h-294v-226h387v-88h-499z" />
    <glyph glyph-name="Igrave" unicode="&#xcc;" horiz-adv-x="276" 
d="M180 762h-80l-101 118h108zM82 0v700h112v-700h-112z" />
    <glyph glyph-name="Iacute" unicode="&#xcd;" horiz-adv-x="276" 
d="M96 762l73 118h108l-101 -118h-80zM82 0v700h112v-700h-112z" />
    <glyph glyph-name="Icircumflex" unicode="&#xce;" horiz-adv-x="276" 
d="M299 764h-78l-83 85l-83 -85h-79l100 119h123zM82 0v700h112v-700h-112z" />
    <glyph glyph-name="Idieresis" unicode="&#xcf;" horiz-adv-x="276" 
d="M6 763v101h96v-101h-96zM174 763v101h96v-101h-96zM82 0v700h112v-700h-112z" />
    <glyph glyph-name="Eth" unicode="&#xd0;" horiz-adv-x="718" 
d="M363 700q150 0 231 -92.5t81 -257.5t-81 -257.5t-231 -92.5h-266v311h-67v78h67v311h266zM352 92q102 0 156.5 68.5t54.5 189.5t-54.5 189.5t-156.5 68.5h-143v-219h182v-78h-182v-219h143z" />
    <glyph glyph-name="Ntilde" unicode="&#xd1;" horiz-adv-x="738" 
d="M307 810q-34 0 -34 -44h-57q0 105 84 105q36 0 76 -26t55 -26q34 0 34 44h57q0 -105 -84 -105q-37 0 -76.5 26t-54.5 26zM549 700h107v-700h-188l-279 632v-632h-107v700h188l279 -632v632z" />
    <glyph glyph-name="Ograve" unicode="&#xd2;" horiz-adv-x="728" 
d="M412 762h-84l-114 118h110zM43 350q0 164 83.5 263t237.5 99t237.5 -99t83.5 -263t-83.5 -263t-237.5 -99t-237.5 99t-83.5 263zM155 350q0 -120 55 -195.5t154 -75.5t154 75.5t55 195.5t-55 195.5t-154 75.5t-154 -75.5t-55 -195.5z" />
    <glyph glyph-name="Oacute" unicode="&#xd3;" horiz-adv-x="728" 
d="M316 762l87 118h111l-114 -118h-84zM43 350q0 164 83.5 263t237.5 99t237.5 -99t83.5 -263t-83.5 -263t-237.5 -99t-237.5 99t-83.5 263zM155 350q0 -120 55 -195.5t154 -75.5t154 75.5t55 195.5t-55 195.5t-154 75.5t-154 -75.5t-55 -195.5z" />
    <glyph glyph-name="Ocircumflex" unicode="&#xd4;" horiz-adv-x="728" 
d="M525 764h-78l-83 85l-83 -85h-79l100 119h123zM43 350q0 164 83.5 263t237.5 99t237.5 -99t83.5 -263t-83.5 -263t-237.5 -99t-237.5 99t-83.5 263zM155 350q0 -120 55 -195.5t154 -75.5t154 75.5t55 195.5t-55 195.5t-154 75.5t-154 -75.5t-55 -195.5z" />
    <glyph glyph-name="Otilde" unicode="&#xd5;" horiz-adv-x="728" 
d="M459 863h58q0 -105 -84 -105q-37 0 -77 26t-55 26q-33 0 -33 -44h-57q0 105 83 105q37 0 77 -26t55 -26q33 0 33 44zM43 350q0 164 83.5 263t237.5 99t237.5 -99t83.5 -263t-83.5 -263t-237.5 -99t-237.5 99t-83.5 263zM155 350q0 -120 55 -195.5t154 -75.5t154 75.5
t55 195.5t-55 195.5t-154 75.5t-154 -75.5t-55 -195.5z" />
    <glyph glyph-name="Odieresis" unicode="&#xd6;" horiz-adv-x="728" 
d="M211 763v101h107v-101h-107zM410 763v101h107v-101h-107zM43 350q0 164 83.5 263t237.5 99t237.5 -99t83.5 -263t-83.5 -263t-237.5 -99t-237.5 99t-83.5 263zM155 350q0 -120 55 -195.5t154 -75.5t154 75.5t55 195.5t-55 195.5t-154 75.5t-154 -75.5t-55 -195.5z" />
    <glyph glyph-name="multiply" unicode="&#xd7;" horiz-adv-x="508" 
d="M445 470l-138 -139l138 -138l-52 -53l-139 139l-139 -139l-52 53l139 138l-139 139l52 53l139 -139l139 139z" />
    <glyph glyph-name="Oslash" unicode="&#xd8;" horiz-adv-x="728" 
d="M603 610q82 -96 82 -260t-83.5 -263t-237.5 -99q-112 0 -188 54l-50 -67l-63 35l61 80q-81 96 -81 260t83.5 263t237.5 99q111 0 187 -54l50 67l63 -34zM155 350q0 -98 38 -168l296 394q-51 45 -125 45q-99 0 -154 -75.5t-55 -195.5zM364 79q99 0 154 75.5t55 195.5
q0 99 -38 169l-297 -394q52 -46 126 -46z" />
    <glyph glyph-name="Ugrave" unicode="&#xd9;" horiz-adv-x="730" 
d="M413 762h-85l-113 118h110zM82 267v433h112v-424q0 -100 42 -148t129 -48q171 0 171 196v424h112v-433q0 -279 -283 -279t-283 279z" />
    <glyph glyph-name="Uacute" unicode="&#xda;" horiz-adv-x="730" 
d="M317 762l87 118h111l-114 -118h-84zM82 267v433h112v-424q0 -100 42 -148t129 -48q171 0 171 196v424h112v-433q0 -279 -283 -279t-283 279z" />
    <glyph glyph-name="Ucircumflex" unicode="&#xdb;" horiz-adv-x="730" 
d="M526 764h-78l-83 85l-83 -85h-79l100 119h123zM82 267v433h112v-424q0 -100 42 -148t129 -48q171 0 171 196v424h112v-433q0 -279 -283 -279t-283 279z" />
    <glyph glyph-name="Udieresis" unicode="&#xdc;" horiz-adv-x="730" 
d="M212 763v101h107v-101h-107zM411 763v101h106v-101h-106zM82 267v433h112v-424q0 -100 42 -148t129 -48q171 0 171 196v424h112v-433q0 -279 -283 -279t-283 279z" />
    <glyph glyph-name="Yacute" unicode="&#xdd;" horiz-adv-x="668" 
d="M484 880l-113 -118h-85l88 118h110zM531 700h122l-263 -416v-284h-112v283l-263 417h128l191 -326z" />
    <glyph glyph-name="Thorn" unicode="&#xde;" horiz-adv-x="651" 
d="M370 581q104 0 173.5 -52.5t69.5 -159.5q0 -106 -67 -156t-173 -50h-179v-163h-112v700h112v-119h176zM357 250q67 0 105.5 30t38.5 89q0 60 -38.5 90t-105.5 30h-163v-239h163z" />
    <glyph glyph-name="germandbls" unicode="&#xdf;" horiz-adv-x="579" 
d="M342 426q203 -20 203 -214q0 -108 -62 -163t-159 -55q-26 0 -66 6v87q32 -6 51 -6q55 0 92 34t37 108q0 75 -40 116t-117 41h-29v83h24q56 0 85 29.5t29 83.5q0 53 -29 81.5t-80 28.5q-108 0 -108 -137v-549h-107v562q0 100 55.5 152t159.5 52q92 0 154 -45t62 -136
q0 -139 -155 -159z" />
    <glyph glyph-name="agrave" unicode="&#xe0;" horiz-adv-x="567" 
d="M344 590h-83l-105 145h111zM40 139q0 144 211 164l148 14v40q0 46 -28.5 74t-85.5 28q-51 0 -84 -23.5t-36 -68.5h-98q3 87 63 128t155 41q107 0 164 -51t57 -150v-335h-99v102q-25 -54 -75 -84t-121 -30q-85 0 -128 42t-43 109zM146 144q0 -36 24.5 -58.5t73.5 -22.5
q71 0 113 44.5t42 114.5v28l-134 -13q-119 -12 -119 -93z" />
    <glyph glyph-name="aacute" unicode="&#xe1;" horiz-adv-x="567" 
d="M225 590l78 145h111l-105 -145h-84zM40 139q0 144 211 164l148 14v40q0 46 -28.5 74t-85.5 28q-51 0 -84 -23.5t-36 -68.5h-98q3 87 63 128t155 41q107 0 164 -51t57 -150v-335h-99v102q-25 -54 -75 -84t-121 -30q-85 0 -128 42t-43 109zM146 144q0 -36 24.5 -58.5
t73.5 -22.5q71 0 113 44.5t42 114.5v28l-134 -13q-119 -12 -119 -93z" />
    <glyph glyph-name="acircumflex" unicode="&#xe2;" horiz-adv-x="567" 
d="M437 590h-77l-75 106l-76 -106h-76l94 145h115zM40 139q0 144 211 164l148 14v40q0 46 -28.5 74t-85.5 28q-51 0 -84 -23.5t-36 -68.5h-98q3 87 63 128t155 41q107 0 164 -51t57 -150v-335h-99v102q-25 -54 -75 -84t-121 -30q-85 0 -128 42t-43 109zM146 144
q0 -36 24.5 -58.5t73.5 -22.5q71 0 113 44.5t42 114.5v28l-134 -13q-119 -12 -119 -93z" />
    <glyph glyph-name="atilde" unicode="&#xe3;" horiz-adv-x="567" 
d="M384 701h59q0 -109 -87 -109q-38 0 -79 27.5t-57 27.5q-35 0 -35 -46h-58q0 108 86 108q38 0 79 -27.5t57 -27.5q35 0 35 47zM40 139q0 144 211 164l148 14v40q0 46 -28.5 74t-85.5 28q-51 0 -84 -23.5t-36 -68.5h-98q3 87 63 128t155 41q107 0 164 -51t57 -150v-335h-99
v102q-25 -54 -75 -84t-121 -30q-85 0 -128 42t-43 109zM146 144q0 -36 24.5 -58.5t73.5 -22.5q71 0 113 44.5t42 114.5v28l-134 -13q-119 -12 -119 -93z" />
    <glyph glyph-name="adieresis" unicode="&#xe4;" horiz-adv-x="567" 
d="M147 605v111h97v-111h-97zM326 605v111h96v-111h-96zM40 139q0 144 211 164l148 14v40q0 46 -28.5 74t-85.5 28q-51 0 -84 -23.5t-36 -68.5h-98q3 87 63 128t155 41q107 0 164 -51t57 -150v-335h-99v102q-25 -54 -75 -84t-121 -30q-85 0 -128 42t-43 109zM146 144
q0 -36 24.5 -58.5t73.5 -22.5q71 0 113 44.5t42 114.5v28l-134 -13q-119 -12 -119 -93z" />
    <glyph glyph-name="aring" unicode="&#xe5;" horiz-adv-x="567" 
d="M285 786q44 0 75.5 -25.5t31.5 -74.5t-31.5 -74.5t-75.5 -25.5t-75.5 25.5t-31.5 74.5t31.5 74.5t75.5 25.5zM285 635q23 0 38.5 13.5t15.5 37.5t-15.5 37.5t-38.5 13.5t-38.5 -13.5t-15.5 -37.5t15.5 -37.5t38.5 -13.5zM40 139q0 144 211 164l148 14v40q0 46 -28.5 74
t-85.5 28q-51 0 -84 -23.5t-36 -68.5h-98q3 87 63 128t155 41q107 0 164 -51t57 -150v-335h-99v102q-25 -54 -75 -84t-121 -30q-85 0 -128 42t-43 109zM146 144q0 -36 24.5 -58.5t73.5 -22.5q71 0 113 44.5t42 114.5v28l-134 -13q-119 -12 -119 -93z" />
    <glyph glyph-name="ae" unicode="&#xe6;" horiz-adv-x="923" 
d="M887 244v-13h-378q6 -81 46 -123.5t103 -42.5q86 0 120 81l102 -7q-20 -71 -78.5 -111t-143.5 -40q-165 0 -218 135q-27 -63 -85.5 -99t-139.5 -36q-87 0 -131 42t-44 109q0 148 211 162l148 10v44q0 47 -28.5 75.5t-85.5 28.5q-51 0 -84 -23.5t-36 -68.5h-98
q3 87 62.5 128t152.5 41q143 0 182 -96q60 96 189 96q112 0 173 -72.5t61 -219.5zM509 301h273q-3 73 -38.5 115.5t-92.5 42.5q-56 0 -95 -40.5t-47 -117.5zM399 222v22l-134 -9q-119 -9 -119 -91q0 -36 24.5 -58.5t73.5 -22.5q71 0 113 44.5t42 114.5z" />
    <glyph glyph-name="ccedilla" unicode="&#xe7;" horiz-adv-x="558" 
d="M290 -12h-2l-29 -50q26 12 51 12q33 0 59 -19.5t26 -59.5q0 -42 -30 -62t-73 -20q-42 0 -69 18.5t-34 52.5l48 3q8 -32 46 -32q20 0 32.5 10.5t12.5 29.5q0 20 -12 30.5t-30 10.5q-16 0 -40 -11l-40 18l39 72q-97 13 -152 83t-55 188q0 131 67 202.5t182 71.5
q94 0 158 -49.5t76 -139.5l-103 -9q-10 56 -45.5 85t-85.5 29q-65 0 -104 -50t-39 -140t39.5 -140t106.5 -50q53 0 88.5 30.5t45.5 88.5l103 -8q-12 -93 -76.5 -144t-160.5 -51z" />
    <glyph glyph-name="egrave" unicode="&#xe8;" horiz-adv-x="575" 
d="M344 590h-83l-105 145h111zM38 262q0 135 70 204.5t186 69.5q245 0 245 -292v-13h-394q6 -81 47.5 -123.5t108.5 -42.5q95 0 129 81l102 -7q-21 -71 -80.5 -111t-150.5 -40q-121 0 -192 69t-71 205zM146 301h287q-3 74 -40 116t-99 42t-101.5 -40t-46.5 -118z" />
    <glyph glyph-name="eacute" unicode="&#xe9;" horiz-adv-x="575" 
d="M225 590l78 145h111l-105 -145h-84zM38 262q0 135 70 204.5t186 69.5q245 0 245 -292v-13h-394q6 -81 47.5 -123.5t108.5 -42.5q95 0 129 81l102 -7q-21 -71 -80.5 -111t-150.5 -40q-121 0 -192 69t-71 205zM146 301h287q-3 74 -40 116t-99 42t-101.5 -40t-46.5 -118z
" />
    <glyph glyph-name="ecircumflex" unicode="&#xea;" horiz-adv-x="575" 
d="M437 590h-77l-75 106l-75 -106h-77l94 145h115zM38 262q0 135 70 204.5t186 69.5q245 0 245 -292v-13h-394q6 -81 47.5 -123.5t108.5 -42.5q95 0 129 81l102 -7q-21 -71 -80.5 -111t-150.5 -40q-121 0 -192 69t-71 205zM146 301h287q-3 74 -40 116t-99 42t-101.5 -40
t-46.5 -118z" />
    <glyph glyph-name="edieresis" unicode="&#xeb;" horiz-adv-x="575" 
d="M147 605v111h97v-111h-97zM326 605v111h96v-111h-96zM38 262q0 135 70 204.5t186 69.5q245 0 245 -292v-13h-394q6 -81 47.5 -123.5t108.5 -42.5q95 0 129 81l102 -7q-21 -71 -80.5 -111t-150.5 -40q-121 0 -192 69t-71 205zM146 301h287q-3 74 -40 116t-99 42
t-101.5 -40t-46.5 -118z" />
    <glyph glyph-name="igrave" unicode="&#xec;" horiz-adv-x="237" 
d="M164 590h-82l-88 145h110zM64 0v524h107v-524h-107z" />
    <glyph glyph-name="iacute" unicode="&#xed;" horiz-adv-x="240" 
d="M73 590l60 145h110l-88 -145h-82zM66 0v524h107v-524h-107z" />
    <glyph glyph-name="icircumflex" unicode="&#xee;" horiz-adv-x="245" 
d="M274 590h-76l-76 106l-75 -106h-77l95 145h115zM69 0v524h107v-524h-107z" />
    <glyph glyph-name="idieresis" unicode="&#xef;" horiz-adv-x="236" 
d="M-5 605v111h91v-111h-91zM150 605v111h91v-111h-91zM64 0v524h107v-524h-107z" />
    <glyph glyph-name="eth" unicode="&#xf0;" horiz-adv-x="595" 
d="M386 664q165 -113 165 -355q0 -164 -70.5 -242.5t-188.5 -78.5q-115 0 -184.5 70t-69.5 189q0 118 66.5 189t169.5 71q72 0 121.5 -35.5t73.5 -99.5q-27 169 -169 242l-123 -71l-23 39l96 55q-58 21 -140 37l18 86q130 -25 214 -70l100 58l23 -39zM294 72q70 0 110.5 47
t40.5 128t-40.5 128.5t-110.5 47.5q-69 0 -109.5 -48t-40.5 -128t40.5 -127.5t109.5 -47.5z" />
    <glyph glyph-name="ntilde" unicode="&#xf1;" horiz-adv-x="591" 
d="M394 701h59q0 -109 -87 -109q-38 0 -79 27.5t-57 27.5q-35 0 -35 -46h-59q0 108 87 108q38 0 79 -27.5t57 -27.5q35 0 35 47zM66 0v524h99v-97q50 109 185 109q88 0 134 -49.5t46 -145.5v-341h-107v307q0 141 -112 141q-66 0 -102 -43.5t-36 -119.5v-285h-107z" />
    <glyph glyph-name="ograve" unicode="&#xf2;" horiz-adv-x="589" 
d="M354 590h-83l-106 145h111zM38 262q0 127 69.5 200.5t186.5 73.5q118 0 187.5 -73.5t69.5 -200.5t-69.5 -200.5t-187.5 -73.5q-117 0 -186.5 73.5t-69.5 200.5zM144 262q0 -86 40.5 -138t109.5 -52t110 52t41 138t-41 138t-110 52t-109.5 -52t-40.5 -138z" />
    <glyph glyph-name="oacute" unicode="&#xf3;" horiz-adv-x="589" 
d="M235 590l77 145h111l-105 -145h-83zM38 262q0 127 69.5 200.5t186.5 73.5q118 0 187.5 -73.5t69.5 -200.5t-69.5 -200.5t-187.5 -73.5q-117 0 -186.5 73.5t-69.5 200.5zM144 262q0 -86 40.5 -138t109.5 -52t110 52t41 138t-41 138t-110 52t-109.5 -52t-40.5 -138z" />
    <glyph glyph-name="ocircumflex" unicode="&#xf4;" horiz-adv-x="589" 
d="M446 590h-76l-76 106l-75 -106h-77l95 145h115zM38 262q0 127 69.5 200.5t186.5 73.5q118 0 187.5 -73.5t69.5 -200.5t-69.5 -200.5t-187.5 -73.5q-117 0 -186.5 73.5t-69.5 200.5zM144 262q0 -86 40.5 -138t109.5 -52t110 52t41 138t-41 138t-110 52t-109.5 -52
t-40.5 -138z" />
    <glyph glyph-name="otilde" unicode="&#xf5;" horiz-adv-x="589" 
d="M393 701h59q0 -109 -86 -109q-38 0 -79.5 27.5t-57.5 27.5q-34 0 -34 -46h-59q0 108 87 108q38 0 79 -27.5t57 -27.5q34 0 34 47zM38 262q0 127 69.5 200.5t186.5 73.5q118 0 187.5 -73.5t69.5 -200.5t-69.5 -200.5t-187.5 -73.5q-117 0 -186.5 73.5t-69.5 200.5z
M144 262q0 -86 40.5 -138t109.5 -52t110 52t41 138t-41 138t-110 52t-109.5 -52t-40.5 -138z" />
    <glyph glyph-name="odieresis" unicode="&#xf6;" horiz-adv-x="589" 
d="M157 605v111h97v-111h-97zM335 605v111h97v-111h-97zM38 262q0 127 69.5 200.5t186.5 73.5q118 0 187.5 -73.5t69.5 -200.5t-69.5 -200.5t-187.5 -73.5q-117 0 -186.5 73.5t-69.5 200.5zM144 262q0 -86 40.5 -138t109.5 -52t110 52t41 138t-41 138t-110 52t-109.5 -52
t-40.5 -138z" />
    <glyph glyph-name="divide" unicode="&#xf7;" horiz-adv-x="501" 
d="M251 440q-22 0 -37 15t-15 37q0 21 15 36t37 15q21 0 36 -15t15 -36q0 -22 -15 -37t-36 -15zM57 370h387v-77h-387v77zM251 119q-22 0 -37 15.5t-15 36.5q0 22 15 37t37 15q21 0 36 -15t15 -37q0 -21 -15 -36.5t-36 -15.5z" />
    <glyph glyph-name="oslash" unicode="&#xf8;" horiz-adv-x="589" 
d="M482 462q69 -74 69 -200q0 -127 -69.5 -200.5t-187.5 -73.5q-81 0 -141 37l-42 -56l-52 30l47 63q-68 76 -68 200q0 127 69.5 200.5t186.5 73.5q82 0 142 -37l42 56l52 -30zM144 262q0 -68 26 -115l210 278q-38 27 -86 27q-69 0 -109.5 -52t-40.5 -138zM294 72
q69 0 110 52t41 138q0 69 -26 116l-210 -278q36 -28 85 -28z" />
    <glyph glyph-name="ugrave" unicode="&#xf9;" horiz-adv-x="591" 
d="M356 590h-83l-105 145h111zM418 524h107v-524h-99v104q-51 -116 -185 -116q-87 0 -133.5 51.5t-46.5 149.5v335h107v-302q0 -146 113 -146q65 0 101 48t36 125v275z" />
    <glyph glyph-name="uacute" unicode="&#xfa;" horiz-adv-x="591" 
d="M237 590l78 145h111l-105 -145h-84zM418 524h107v-524h-99v104q-51 -116 -185 -116q-87 0 -133.5 51.5t-46.5 149.5v335h107v-302q0 -146 113 -146q65 0 101 48t36 125v275z" />
    <glyph glyph-name="ucircumflex" unicode="&#xfb;" horiz-adv-x="591" 
d="M449 590h-77l-75 106l-76 -106h-76l94 145h115zM418 524h107v-524h-99v104q-51 -116 -185 -116q-87 0 -133.5 51.5t-46.5 149.5v335h107v-302q0 -146 113 -146q65 0 101 48t36 125v275z" />
    <glyph glyph-name="udieresis" unicode="&#xfc;" horiz-adv-x="591" 
d="M159 605v111h97v-111h-97zM338 605v111h96v-111h-96zM418 524h107v-524h-99v104q-51 -116 -185 -116q-87 0 -133.5 51.5t-46.5 149.5v335h107v-302q0 -146 113 -146q65 0 101 48t36 125v275z" />
    <glyph glyph-name="yacute" unicode="&#xfd;" horiz-adv-x="560" 
d="M409 735l-105 -145h-84l78 145h111zM428 524h114l-186 -577q-26 -91 -67 -125t-124 -34q-31 0 -64 4v82q40 -2 57 -2q42 0 64 18.5t37 70.5l12 39h-62l-191 524h115l162 -481z" />
    <glyph glyph-name="thorn" unicode="&#xfe;" horiz-adv-x="605" 
d="M66 -200v936h107v-303q26 49 71.5 76t101.5 27q98 0 159.5 -73.5t61.5 -200.5t-61.5 -200.5t-158.5 -73.5q-119 0 -174 105v-293h-107zM168 262q0 -86 39.5 -138t106.5 -52q68 0 107.5 52t39.5 138t-39.5 138t-107.5 52q-67 0 -106.5 -52t-39.5 -138z" />
    <glyph glyph-name="ydieresis" unicode="&#xff;" horiz-adv-x="560" 
d="M239 716v-111h-97v111h97zM417 716v-111h-96v111h96zM428 524h114l-186 -577q-26 -91 -67 -125t-124 -34q-31 0 -64 4v82q40 -2 57 -2q42 0 64 18.5t37 70.5l12 39h-62l-191 524h115l162 -481z" />
    <glyph glyph-name="Amacron" unicode="&#x100;" horiz-adv-x="681" 
d="M499 843v-75h-316v75h316zM549 0l-57 175h-306l-58 -175h-111l238 700h171l238 -700h-115zM339 639l-125 -378h249z" />
    <glyph glyph-name="amacron" unicode="&#x101;" horiz-adv-x="567" 
d="M136 620v73h297v-73h-297zM40 139q0 144 211 164l148 14v40q0 46 -28.5 74t-85.5 28q-51 0 -84 -23.5t-36 -68.5h-98q3 87 63 128t155 41q107 0 164 -51t57 -150v-335h-99v102q-25 -54 -75 -84t-121 -30q-85 0 -128 42t-43 109zM146 144q0 -36 24.5 -58.5t73.5 -22.5
q71 0 113 44.5t42 114.5v28l-134 -13q-119 -12 -119 -93z" />
    <glyph glyph-name="Abreve" unicode="&#x102;" horiz-adv-x="681" 
d="M341 757q-74 0 -112.5 36.5t-40.5 96.5h65q3 -28 23.5 -48t64.5 -20t64 19.5t23 48.5h66q-2 -60 -40.5 -96.5t-112.5 -36.5zM549 0l-57 175h-306l-58 -175h-111l238 700h171l238 -700h-115zM339 639l-125 -378h249z" />
    <glyph glyph-name="abreve" unicode="&#x103;" horiz-adv-x="567" 
d="M371 734h62q-2 -66 -39 -105t-109 -39t-109.5 39t-39.5 105h63q6 -79 86 -79q78 0 86 79zM40 139q0 144 211 164l148 14v40q0 46 -28.5 74t-85.5 28q-51 0 -84 -23.5t-36 -68.5h-98q3 87 63 128t155 41q107 0 164 -51t57 -150v-335h-99v102q-25 -54 -75 -84t-121 -30
q-85 0 -128 42t-43 109zM146 144q0 -36 24.5 -58.5t73.5 -22.5q71 0 113 44.5t42 114.5v28l-134 -13q-119 -12 -119 -93z" />
    <glyph glyph-name="Aogonek" unicode="&#x104;" horiz-adv-x="681" 
d="M637 -104l43 -11q-9 -40 -36.5 -62.5t-68.5 -22.5q-39 0 -63.5 20.5t-24.5 57.5q0 43 31.5 70.5t84.5 51.5h-54l-57 175h-306l-58 -175h-111l238 700h171l238 -700q-50 -31 -78.5 -58t-28.5 -59q0 -36 33 -36q37 0 47 49zM339 639l-125 -378h249z" />
    <glyph glyph-name="aogonek" unicode="&#x105;" horiz-adv-x="567" 
d="M480 -104l42 -11q-9 -40 -36.5 -62.5t-68.5 -22.5q-39 0 -63.5 20.5t-24.5 57.5q0 43 31.5 70.5t84.5 51.5h-38v102q-25 -54 -75 -84t-121 -30q-85 0 -128 42t-43 109q0 144 211 164l148 14v40q0 46 -28.5 74t-85.5 28q-51 0 -84 -23.5t-36 -68.5h-98q3 87 63 128t155 41
q107 0 164 -51t57 -150v-335q-50 -31 -78.5 -58t-28.5 -59q0 -36 33 -36q36 0 48 49zM399 222v28l-134 -13q-119 -12 -119 -93q0 -36 24.5 -58.5t73.5 -22.5q71 0 113 44.5t42 114.5z" />
    <glyph glyph-name="Cacute" unicode="&#x106;" horiz-adv-x="679" 
d="M293 762l87 118h110l-113 -118h-84zM43 350q0 163 81 262.5t227 99.5q120 0 196 -63.5t90 -171.5l-106 -9q-10 69 -59.5 111t-120.5 42q-96 0 -146 -78t-50 -193q0 -118 54 -194.5t150 -76.5q76 0 123 46.5t56 117.5l107 -7q-14 -114 -87.5 -181t-198.5 -67
q-151 0 -233.5 98.5t-82.5 263.5z" />
    <glyph glyph-name="cacute" unicode="&#x107;" horiz-adv-x="558" 
d="M220 590l78 145h111l-105 -145h-84zM38 262q0 131 67 202.5t182 71.5q94 0 158 -49.5t76 -139.5l-103 -9q-10 56 -45.5 85t-85.5 29q-65 0 -104 -50t-39 -140t39.5 -140t106.5 -50q53 0 88.5 30.5t45.5 88.5l103 -8q-12 -93 -76.5 -144t-160.5 -51q-117 0 -184.5 71
t-67.5 203z" />
    <glyph glyph-name="Cdotaccent" unicode="&#x10a;" horiz-adv-x="679" 
d="M280 762v104h120v-104h-120zM43 350q0 163 81 262.5t227 99.5q120 0 196 -63.5t90 -171.5l-106 -9q-10 69 -59.5 111t-120.5 42q-96 0 -146 -78t-50 -193q0 -118 54 -194.5t150 -76.5q76 0 123 46.5t56 117.5l107 -7q-14 -114 -87.5 -181t-198.5 -67q-151 0 -233.5 98.5
t-82.5 263.5z" />
    <glyph glyph-name="cdotaccent" unicode="&#x10b;" horiz-adv-x="558" 
d="M223 605v119h113v-119h-113zM38 262q0 131 67 202.5t182 71.5q94 0 158 -49.5t76 -139.5l-103 -9q-10 56 -45.5 85t-85.5 29q-65 0 -104 -50t-39 -140t39.5 -140t106.5 -50q53 0 88.5 30.5t45.5 88.5l103 -8q-12 -93 -76.5 -144t-160.5 -51q-117 0 -184.5 71t-67.5 203z
" />
    <glyph glyph-name="Ccaron" unicode="&#x10c;" horiz-adv-x="679" 
d="M423 880h79l-100 -119h-123l-100 119h78l83 -86zM43 350q0 163 81 262.5t227 99.5q120 0 196 -63.5t90 -171.5l-106 -9q-10 69 -59.5 111t-120.5 42q-96 0 -146 -78t-50 -193q0 -118 54 -194.5t150 -76.5q76 0 123 46.5t56 117.5l107 -7q-14 -114 -87.5 -181t-198.5 -67
q-151 0 -233.5 98.5t-82.5 263.5z" />
    <glyph glyph-name="ccaron" unicode="&#x10d;" horiz-adv-x="558" 
d="M355 732h77l-95 -145h-115l-94 145h77l75 -106zM38 262q0 131 67 202.5t182 71.5q94 0 158 -49.5t76 -139.5l-103 -9q-10 56 -45.5 85t-85.5 29q-65 0 -104 -50t-39 -140t39.5 -140t106.5 -50q53 0 88.5 30.5t45.5 88.5l103 -8q-12 -93 -76.5 -144t-160.5 -51
q-117 0 -184.5 71t-67.5 203z" />
    <glyph glyph-name="Dcaron" unicode="&#x10e;" horiz-adv-x="703" 
d="M435 880h78l-100 -119h-123l-100 119h79l83 -86zM82 0v700h266q150 0 231 -92.5t81 -257.5t-81 -257.5t-231 -92.5h-266zM194 92h143q102 0 156.5 69t54.5 189t-54.5 189t-156.5 69h-143v-516z" />
    <glyph glyph-name="dcaron" unicode="&#x10f;" horiz-adv-x="627" 
d="M38 262q0 127 61.5 200.5t159.5 73.5q56 0 101 -27t72 -76v303h107v-736h-99v107q-26 -57 -74 -88t-108 -31q-97 0 -158.5 73.5t-61.5 200.5zM599 575v161h79v-59l-39 -102h-40zM144 262q0 -86 39.5 -138t106.5 -52q68 0 107.5 52t39.5 138t-39.5 138t-107.5 52
q-67 0 -106.5 -52t-39.5 -138z" />
    <glyph glyph-name="Dcroat" unicode="&#x110;" horiz-adv-x="718" 
d="M363 700q150 0 231 -92.5t81 -257.5t-81 -257.5t-231 -92.5h-266v311h-67v78h67v311h266zM352 92q102 0 156.5 68.5t54.5 189.5t-54.5 189.5t-156.5 68.5h-143v-219h182v-78h-182v-219h143z" />
    <glyph glyph-name="dcroat" unicode="&#x111;" horiz-adv-x="605" 
d="M598 650v-52h-59v-598h-99v107q-26 -57 -74 -88t-108 -31q-97 0 -158.5 73.5t-61.5 200.5t61.5 200.5t159.5 73.5q56 0 101 -27t72 -76v165h-184v52h184v86h107v-86h59zM290 72q68 0 107.5 52t39.5 138t-39.5 138t-107.5 52q-67 0 -106.5 -52t-39.5 -138t39.5 -138
t106.5 -52z" />
    <glyph glyph-name="Emacron" unicode="&#x112;" horiz-adv-x="623" 
d="M156 768v75h317v-75h-317zM82 0v700h485v-88h-373v-214h294v-84h-294v-226h387v-88h-499z" />
    <glyph glyph-name="emacron" unicode="&#x113;" horiz-adv-x="575" 
d="M136 620v73h297v-73h-297zM38 262q0 135 70 204.5t186 69.5q245 0 245 -292v-13h-394q6 -81 47.5 -123.5t108.5 -42.5q95 0 129 81l102 -7q-21 -71 -80.5 -111t-150.5 -40q-121 0 -192 69t-71 205zM146 301h287q-3 74 -40 116t-99 42t-101.5 -40t-46.5 -118z" />
    <glyph glyph-name="Edotaccent" unicode="&#x116;" horiz-adv-x="623" 
d="M254 762v104h120v-104h-120zM82 0v700h485v-88h-373v-214h294v-84h-294v-226h387v-88h-499z" />
    <glyph glyph-name="edotaccent" unicode="&#x117;" horiz-adv-x="575" 
d="M228 605v119h113v-119h-113zM38 262q0 135 70 204.5t186 69.5q245 0 245 -292v-13h-394q6 -81 47.5 -123.5t108.5 -42.5q95 0 129 81l102 -7q-21 -71 -80.5 -111t-150.5 -40q-121 0 -192 69t-71 205zM146 301h287q-3 74 -40 116t-99 42t-101.5 -40t-46.5 -118z" />
    <glyph glyph-name="Eogonek" unicode="&#x118;" horiz-adv-x="623" 
d="M564 0q-51 -31 -79.5 -58t-28.5 -59q0 -36 34 -36q37 0 47 49l42 -11q-8 -39 -35.5 -62t-69.5 -23q-39 0 -63 20.5t-24 57.5q0 43 31 70.5t84 51.5h-420v700h485v-88h-373v-214h294v-84h-294v-226h387v-88h-17z" />
    <glyph glyph-name="eogonek" unicode="&#x119;" horiz-adv-x="575" 
d="M539 244v-13h-394q6 -81 47.5 -123.5t108.5 -42.5q95 0 129 81l102 -7q-22 -74 -83 -113q-90 -59 -117.5 -86t-27.5 -57q0 -36 33 -36q37 0 47 49l43 -11q-9 -40 -36.5 -62.5t-68.5 -22.5q-39 0 -63.5 20.5t-24.5 57.5q0 65 92 111q-8 -1 -25 -1q-121 0 -192 69t-71 205
q0 135 70 204.5t186 69.5q245 0 245 -292zM146 301h287q-3 74 -40 116t-99 42t-101.5 -40t-46.5 -118z" />
    <glyph glyph-name="Ecaron" unicode="&#x11a;" horiz-adv-x="623" 
d="M397 880h79l-100 -119h-123l-100 119h78l83 -86zM82 0v700h485v-88h-373v-214h294v-84h-294v-226h387v-88h-499z" />
    <glyph glyph-name="ecaron" unicode="&#x11b;" horiz-adv-x="575" 
d="M360 732h77l-95 -145h-115l-94 145h77l75 -106zM38 262q0 135 70 204.5t186 69.5q245 0 245 -292v-13h-394q6 -81 47.5 -123.5t108.5 -42.5q95 0 129 81l102 -7q-21 -71 -80.5 -111t-150.5 -40q-121 0 -192 69t-71 205zM146 301h287q-3 74 -40 116t-99 42t-101.5 -40
t-46.5 -118z" />
    <glyph glyph-name="Gbreve" unicode="&#x11e;" horiz-adv-x="694" 
d="M434 890h66q-2 -60 -40.5 -96.5t-112.5 -36.5t-112.5 36.5t-40.5 96.5h66q2 -28 22.5 -48t64.5 -20t64 19.5t23 48.5zM43 350q0 163 81 262.5t227 99.5q115 0 190 -59t94 -161l-107 -10q-14 63 -62 101t-115 38q-96 0 -146 -78t-50 -193q0 -120 59 -195.5t168 -75.5
q86 0 163 38v168h-185v77h287v-307q-132 -67 -268 -67q-163 0 -249.5 99t-86.5 263z" />
    <glyph glyph-name="gbreve" unicode="&#x11f;" horiz-adv-x="601" 
d="M386 734h62q-2 -66 -39 -105t-109 -39t-109.5 39t-39.5 105h63q6 -79 86 -79q78 0 86 79zM38 273q0 119 62.5 191t160.5 72q58 0 103.5 -28t71.5 -78v94h99v-477q0 -134 -58 -196.5t-182 -62.5q-102 0 -161.5 43.5t-62.5 130.5h99q3 -45 35.5 -69t89.5 -24q71 0 102 37.5
t31 113.5v83q-54 -93 -166 -93q-99 0 -161.5 72t-62.5 191zM144 270q0 -81 40 -130t106 -49q67 0 107 49t40 130q0 82 -40 132t-107 50q-66 0 -106 -50t-40 -132z" />
    <glyph glyph-name="Gdotaccent" unicode="&#x120;" horiz-adv-x="694" 
d="M287 762v104h120v-104h-120zM43 350q0 163 81 262.5t227 99.5q115 0 190 -59t94 -161l-107 -10q-14 63 -62 101t-115 38q-96 0 -146 -78t-50 -193q0 -120 59 -195.5t168 -75.5q86 0 163 38v168h-185v77h287v-307q-132 -67 -268 -67q-163 0 -249.5 99t-86.5 263z" />
    <glyph glyph-name="gdotaccent" unicode="&#x121;" horiz-adv-x="601" 
d="M243 605v119h113v-119h-113zM38 273q0 119 62.5 191t160.5 72q58 0 103.5 -28t71.5 -78v94h99v-477q0 -134 -58 -196.5t-182 -62.5q-102 0 -161.5 43.5t-62.5 130.5h99q3 -45 35.5 -69t89.5 -24q71 0 102 37.5t31 113.5v83q-54 -93 -166 -93q-99 0 -161.5 72t-62.5 191z
M144 270q0 -81 40 -130t106 -49q67 0 107 49t40 130q0 82 -40 132t-107 50q-66 0 -106 -50t-40 -132z" />
    <glyph glyph-name="Gcommaaccent" unicode="&#x122;" horiz-adv-x="694" 
d="M43 350q0 163 81 262.5t227 99.5q115 0 190 -59t94 -161l-107 -10q-14 63 -62 101t-115 38q-96 0 -146 -78t-50 -193q0 -120 59 -195.5t168 -75.5q86 0 163 38v168h-185v77h287v-307q-132 -67 -268 -67q-163 0 -249.5 99t-86.5 263zM309 -221v169h96v-64l-51 -105h-45z
" />
    <glyph glyph-name="gcommaaccent" unicode="&#x123;" horiz-adv-x="601" 
d="M348 779v-169h-96v64l50 105h46zM38 273q0 119 62.5 191t160.5 72q58 0 103.5 -28t71.5 -78v94h99v-477q0 -134 -58 -196.5t-182 -62.5q-102 0 -161.5 43.5t-62.5 130.5h99q3 -45 35.5 -69t89.5 -24q71 0 102 37.5t31 113.5v83q-54 -93 -166 -93q-99 0 -161.5 72
t-62.5 191zM144 270q0 -81 40 -130t106 -49q67 0 107 49t40 130q0 82 -40 132t-107 50q-66 0 -106 -50t-40 -132z" />
    <glyph glyph-name="Hbar" unicode="&#x126;" horiz-adv-x="726" 
d="M711 589v-66h-67v-523h-112v310h-338v-310h-112v523h-67v66h67v111h112v-111h338v111h112v-111h67zM532 402v121h-338v-121h338z" />
    <glyph glyph-name="hbar" unicode="&#x127;" horiz-adv-x="592" 
d="M351 536q88 0 134 -49.5t46 -145.5v-341h-107v307q0 141 -112 141q-66 0 -102 -43.5t-36 -119.5v-285h-107v598h-61v52h61v86h107v-86h183v-52h-183v-157q51 95 177 95z" />
    <glyph glyph-name="Imacron" unicode="&#x12a;" horiz-adv-x="276" 
d="M-20 768v75h316v-75h-316zM82 0v700h112v-700h-112z" />
    <glyph glyph-name="imacron" unicode="&#x12b;" horiz-adv-x="239" 
d="M-9 620v73h257v-73h-257zM66 0v524h107v-524h-107z" />
    <glyph glyph-name="Iogonek" unicode="&#x12e;" horiz-adv-x="276" 
d="M174 -104l43 -11q-9 -40 -36.5 -62.5t-68.5 -22.5q-39 0 -63.5 21t-24.5 59q0 72 108 120h-50v700h112v-700q-100 -60 -100 -116q0 -37 33 -37q37 0 47 49z" />
    <glyph glyph-name="iogonek" unicode="&#x12f;" horiz-adv-x="240" 
d="M176 724v-119h-113v119h113zM153 -104l43 -11q-9 -40 -36.5 -62.5t-68.5 -22.5q-39 0 -63.5 21t-24.5 59q0 72 108 120h-45v524h107v-524q-100 -60 -100 -116q0 -37 33 -37q37 0 47 49z" />
    <glyph glyph-name="Idotaccent" unicode="&#x130;" horiz-adv-x="276" 
d="M78 762v104h120v-104h-120zM82 0v700h112v-700h-112z" />
    <glyph glyph-name="dotlessi" unicode="&#x131;" horiz-adv-x="245" 
d="M69 0v524h107v-524h-107z" />
    <glyph glyph-name="Kcommaaccent" unicode="&#x136;" horiz-adv-x="680" 
d="M375 361l285 -361h-133l-238 310h-95v-310h-112v700h112v-303h94l221 303h130zM289 -221v169h96v-64l-50 -105h-46z" />
    <glyph glyph-name="kcommaaccent" unicode="&#x137;" horiz-adv-x="559" 
d="M313 274l236 -274h-133l-181 223h-62v-223h-107v736h107v-429h64l171 217h127zM233 -221v169h96v-64l-51 -105h-45z" />
    <glyph glyph-name="Lacute" unicode="&#x139;" horiz-adv-x="562" 
d="M93 762l87 118h110l-113 -118h-84zM82 0v700h112v-608h336v-92h-448z" />
    <glyph glyph-name="lacute" unicode="&#x13a;" horiz-adv-x="239" 
d="M71 798l88 118h110l-113 -118h-85zM66 736h107v-736h-107v736z" />
    <glyph glyph-name="Lcommaaccent" unicode="&#x13b;" horiz-adv-x="562" 
d="M82 0v700h112v-608h336v-92h-448zM234 -221v169h96v-64l-51 -105h-45z" />
    <glyph glyph-name="lcommaaccent" unicode="&#x13c;" horiz-adv-x="239" 
d="M66 736h107v-736h-107v736zM71 -221v169h96v-64l-50 -105h-46z" />
    <glyph glyph-name="Lcaron" unicode="&#x13d;" horiz-adv-x="562" 
d="M82 0v700h112v-608h336v-92h-448zM284 539v161h78v-59l-39 -102h-39z" />
    <glyph glyph-name="lcaron" unicode="&#x13e;" horiz-adv-x="261" 
d="M66 736h107v-736h-107v736zM233 575v161h79v-59l-39 -102h-40z" />
    <glyph glyph-name="Ldot" unicode="&#x13f;" horiz-adv-x="562" 
d="M82 0v700h112v-608h336v-92h-448zM301 301v130h121v-130h-121z" />
    <glyph glyph-name="ldot" unicode="&#x140;" horiz-adv-x="365" 
d="M66 736h107v-736h-107v736zM234 245v130h121v-130h-121z" />
    <glyph glyph-name="Lslash" unicode="&#x141;" horiz-adv-x="593" 
d="M225 92h336v-92h-448v274l-84 -34v73l84 34v353h112v-306l197 81v-73l-197 -81v-229z" />
    <glyph glyph-name="lslash" unicode="&#x142;" horiz-adv-x="273" 
d="M243 504v-76l-53 -49v-379h-107v281l-53 -49v76l53 49v379h107v-281z" />
    <glyph glyph-name="Nacute" unicode="&#x143;" horiz-adv-x="738" 
d="M519 880l-113 -118h-85l88 118h110zM549 700h107v-700h-188l-279 632v-632h-107v700h188l279 -632v632z" />
    <glyph glyph-name="nacute" unicode="&#x144;" horiz-adv-x="591" 
d="M235 590l78 145h111l-105 -145h-84zM66 0v524h99v-97q50 109 185 109q88 0 134 -49.5t46 -145.5v-341h-107v307q0 141 -112 141q-66 0 -102 -43.5t-36 -119.5v-285h-107z" />
    <glyph glyph-name="Ncommaaccent" unicode="&#x145;" horiz-adv-x="738" 
d="M549 700h107v-700h-188l-279 632v-632h-107v700h188l279 -632v632zM321 -221v169h96v-64l-50 -105h-46z" />
    <glyph glyph-name="ncommaaccent" unicode="&#x146;" horiz-adv-x="591" 
d="M66 0v524h99v-97q50 109 185 109q88 0 134 -49.5t46 -145.5v-341h-107v307q0 141 -112 141q-66 0 -102 -43.5t-36 -119.5v-285h-107zM247 -221v169h96v-64l-51 -105h-45z" />
    <glyph glyph-name="Ncaron" unicode="&#x147;" horiz-adv-x="738" 
d="M431 761h-123l-100 119h78l83 -86l83 86h79zM549 700h107v-700h-188l-279 632v-632h-107v700h188l279 -632v632z" />
    <glyph glyph-name="ncaron" unicode="&#x148;" horiz-adv-x="591" 
d="M370 732h77l-95 -145h-115l-94 145h76l76 -106zM66 0v524h99v-97q50 109 185 109q88 0 134 -49.5t46 -145.5v-341h-107v307q0 141 -112 141q-66 0 -102 -43.5t-36 -119.5v-285h-107z" />
    <glyph glyph-name="Eng" unicode="&#x14a;" horiz-adv-x="738" 
d="M549 700h107v-735q0 -180 -194 -180q-34 0 -76 5v88q23 -4 54 -4q109 0 109 102v24h-81l-279 632v-632h-107v700h188l279 -632v632z" />
    <glyph glyph-name="eng" unicode="&#x14b;" horiz-adv-x="591" 
d="M66 0v524h99v-97q50 109 185 109q88 0 134 -49.5t46 -145.5v-415q0 -75 -30 -106.5t-103 -31.5q-25 0 -75 4v86q16 -2 40 -2q35 0 48 15.5t13 61.5v354q0 141 -112 141q-66 0 -102 -43.5t-36 -119.5v-285h-107z" />
    <glyph glyph-name="Omacron" unicode="&#x14c;" horiz-adv-x="728" 
d="M206 768v75h316v-75h-316zM43 350q0 164 83.5 263t237.5 99t237.5 -99t83.5 -263t-83.5 -263t-237.5 -99t-237.5 99t-83.5 263zM155 350q0 -120 55 -195.5t154 -75.5t154 75.5t55 195.5t-55 195.5t-154 75.5t-154 -75.5t-55 -195.5z" />
    <glyph glyph-name="omacron" unicode="&#x14d;" horiz-adv-x="589" 
d="M146 620v73h297v-73h-297zM38 262q0 127 69.5 200.5t186.5 73.5q118 0 187.5 -73.5t69.5 -200.5t-69.5 -200.5t-187.5 -73.5q-117 0 -186.5 73.5t-69.5 200.5zM144 262q0 -86 40.5 -138t109.5 -52t110 52t41 138t-41 138t-110 52t-109.5 -52t-40.5 -138z" />
    <glyph glyph-name="Ohungarumlaut" unicode="&#x150;" horiz-adv-x="728" 
d="M217 762l77 118h94l-87 -118h-84zM386 762l78 118h94l-87 -118h-85zM43 350q0 164 83.5 263t237.5 99t237.5 -99t83.5 -263t-83.5 -263t-237.5 -99t-237.5 99t-83.5 263zM155 350q0 -120 55 -195.5t154 -75.5t154 75.5t55 195.5t-55 195.5t-154 75.5t-154 -75.5
t-55 -195.5z" />
    <glyph glyph-name="ohungarumlaut" unicode="&#x151;" horiz-adv-x="589" 
d="M163 590l72 145h84l-79 -145h-77zM314 590l73 145h84l-79 -145h-78zM38 262q0 127 69.5 200.5t186.5 73.5q118 0 187.5 -73.5t69.5 -200.5t-69.5 -200.5t-187.5 -73.5q-117 0 -186.5 73.5t-69.5 200.5zM144 262q0 -86 40.5 -138t109.5 -52t110 52t41 138t-41 138t-110 52
t-109.5 -52t-40.5 -138z" />
    <glyph glyph-name="OE" unicode="&#x152;" horiz-adv-x="1033" 
d="M43 350q0 165 81.5 257.5t230.5 92.5h622v-88h-374v-214h295v-84h-295v-226h388v-88h-636q-149 0 -230.5 92.5t-81.5 257.5zM155 350q0 -120 54.5 -189t156.5 -69h125v516h-125q-102 0 -156.5 -69t-54.5 -189z" />
    <glyph glyph-name="oe" unicode="&#x153;" horiz-adv-x="982" 
d="M946 244v-13h-394q6 -81 47.5 -123.5t108.5 -42.5q95 0 129 81l102 -7q-21 -71 -79.5 -111t-147.5 -40q-158 0 -215 121q-60 -121 -207 -121q-114 0 -183 74t-69 200t69 200t183 74q147 0 206 -121q59 121 209 121q241 0 241 -292zM553 301h287q-3 74 -40 116t-99 42
t-101.5 -40t-46.5 -118zM294 72q69 0 110 52t41 138t-41 138t-110 52t-109.5 -52t-40.5 -138t40.5 -138t109.5 -52z" />
    <glyph glyph-name="Racute" unicode="&#x154;" horiz-adv-x="675" 
d="M488 880l-113 -118h-84l87 118h110zM650 0h-135l-197 281h-124v-281h-112v700h296q105 0 174.5 -52.5t69.5 -159.5q0 -92 -51 -142.5t-135 -60.5zM194 365h172q67 0 105.5 31t38.5 92q0 60 -38.5 91t-105.5 31h-172v-245z" />
    <glyph glyph-name="racute" unicode="&#x155;" horiz-adv-x="412" 
d="M150 590l78 145h111l-105 -145h-84zM321 534q32 0 59 -7v-95q-38 7 -73 7q-68 0 -101 -43.5t-33 -135.5v-260h-107v524h99v-105q43 115 156 115z" />
    <glyph glyph-name="Rcommaaccent" unicode="&#x156;" horiz-adv-x="675" 
d="M436 285l214 -285h-135l-197 281h-124v-281h-112v700h296q105 0 174.5 -52.5t69.5 -159.5q0 -92 -51 -142.5t-135 -60.5zM194 365h172q67 0 105.5 31t38.5 92q0 60 -38.5 91t-105.5 31h-172v-245zM290 -221v169h96v-64l-50 -105h-46z" />
    <glyph glyph-name="rcommaaccent" unicode="&#x157;" horiz-adv-x="412" 
d="M321 534q32 0 59 -7v-95q-38 7 -73 7q-68 0 -101 -43.5t-33 -135.5v-260h-107v524h99v-105q43 115 156 115zM72 -221v169h96v-64l-51 -105h-45z" />
    <glyph glyph-name="Rcaron" unicode="&#x158;" horiz-adv-x="675" 
d="M400 761h-123l-100 119h78l83 -86l83 86h79zM650 0h-135l-197 281h-124v-281h-112v700h296q105 0 174.5 -52.5t69.5 -159.5q0 -92 -51 -142.5t-135 -60.5zM194 365h172q67 0 105.5 31t38.5 92q0 60 -38.5 91t-105.5 31h-172v-245z" />
    <glyph glyph-name="rcaron" unicode="&#x159;" horiz-adv-x="412" 
d="M285 732h77l-95 -145h-115l-94 145h76l76 -106zM321 534q32 0 59 -7v-95q-38 7 -73 7q-68 0 -101 -43.5t-33 -135.5v-260h-107v524h99v-105q43 115 156 115z" />
    <glyph glyph-name="Sacute" unicode="&#x15a;" horiz-adv-x="619" 
d="M261 762l87 118h111l-114 -118h-84zM31 220l105 4q7 -148 178 -148q67 0 111 25t44 79q0 38 -27 62.5t-91 45.5l-145 47q-150 48 -150 184q0 96 68.5 144.5t172.5 48.5q112 0 183.5 -55.5t78.5 -154.5l-104 -7q-4 59 -44.5 94t-114.5 35q-61 0 -94.5 -25.5t-33.5 -71.5
q0 -71 103 -104l145 -46q83 -26 124 -71t41 -118q0 -100 -72 -150t-196 -50q-133 0 -205 59.5t-77 172.5z" />
    <glyph glyph-name="sacute" unicode="&#x15b;" horiz-adv-x="509" 
d="M191 590l77 145h111l-105 -145h-83zM23 153l98 4q10 -92 133 -92q56 0 88 18t32 52q0 26 -21.5 43t-73.5 32l-114 33q-126 36 -126 147q0 75 55.5 110.5t145.5 35.5q94 0 156 -39.5t71 -119.5l-98 -5q-7 43 -41.5 65t-87.5 22q-45 1 -70.5 -16.5t-25.5 -49.5
q0 -49 81 -73l114 -32q140 -38 140 -148q0 -75 -61 -113.5t-166 -38.5q-216 0 -229 165z" />
    <glyph glyph-name="Scedilla" unicode="&#x15e;" horiz-adv-x="619" 
d="M581 188q0 -99 -70.5 -149t-193.5 -51l-29 -50q26 12 51 12q33 0 59 -19.5t26 -59.5q0 -42 -30 -62t-73 -20q-42 0 -69 18.5t-34 52.5l48 3q8 -32 46 -32q20 0 32.5 10.5t12.5 29.5q0 20 -12 30.5t-30 10.5q-16 0 -40 -11l-40 18l38 70q-114 9 -175.5 68t-66.5 163l105 4
q7 -148 178 -148q67 0 111 25t44 79q0 38 -27 62.5t-91 45.5l-145 47q-150 48 -150 184q0 96 68.5 144.5t172.5 48.5q112 0 183.5 -55.5t78.5 -154.5l-104 -7q-4 59 -44.5 94t-114.5 35q-61 0 -94.5 -25.5t-33.5 -71.5q0 -71 103 -104l145 -46q83 -26 124 -71t41 -118z" />
    <glyph glyph-name="scedilla" unicode="&#x15f;" horiz-adv-x="509" 
d="M479 140q0 -73 -59 -111.5t-161 -40.5l-29 -50q24 12 50 12q33 0 59.5 -19.5t26.5 -59.5q0 -42 -30.5 -62t-72.5 -20t-69.5 18.5t-34.5 52.5l49 3q8 -32 46 -32q44 0 44 40q0 20 -12 30.5t-30 10.5q-16 0 -40 -11l-40 18l39 70q-179 15 -192 164l98 4q10 -92 133 -92
q56 0 88 18t32 52q0 26 -21.5 43t-73.5 32l-114 33q-126 36 -126 147q0 75 55.5 110.5t145.5 35.5q94 0 156 -39.5t71 -119.5l-98 -5q-7 43 -41.5 65t-87.5 22q-45 1 -70.5 -16.5t-25.5 -49.5q0 -49 81 -73l114 -32q140 -38 140 -148z" />
    <glyph glyph-name="Scaron" unicode="&#x160;" horiz-adv-x="619" 
d="M392 880h78l-100 -119h-123l-100 119h79l83 -86zM31 220l105 4q7 -148 178 -148q67 0 111 25t44 79q0 38 -27 62.5t-91 45.5l-145 47q-150 48 -150 184q0 96 68.5 144.5t172.5 48.5q112 0 183.5 -55.5t78.5 -154.5l-104 -7q-4 59 -44.5 94t-114.5 35q-61 0 -94.5 -25.5
t-33.5 -71.5q0 -71 103 -104l145 -46q83 -26 124 -71t41 -118q0 -100 -72 -150t-196 -50q-133 0 -205 59.5t-77 172.5z" />
    <glyph glyph-name="scaron" unicode="&#x161;" horiz-adv-x="509" 
d="M326 732h76l-94 -145h-115l-95 145h77l75 -106zM23 153l98 4q10 -92 133 -92q56 0 88 18t32 52q0 26 -21.5 43t-73.5 32l-114 33q-126 36 -126 147q0 75 55.5 110.5t145.5 35.5q94 0 156 -39.5t71 -119.5l-98 -5q-7 43 -41.5 65t-87.5 22q-45 1 -70.5 -16.5t-25.5 -49.5
q0 -49 81 -73l114 -32q140 -38 140 -148q0 -75 -61 -113.5t-166 -38.5q-216 0 -229 165z" />
    <glyph glyph-name="uni0162" unicode="&#x162;" horiz-adv-x="596" 
d="M354 0h-40l-35 -62q24 12 51 12q33 0 59 -19.5t26 -59.5q0 -42 -30.5 -62t-72.5 -20t-69.5 18.5t-34.5 52.5l49 3q8 -32 46 -32q44 0 44 40q0 20 -12 30.5t-30 10.5q-16 0 -40 -11l-40 18l45 81h-28v608h-218v92h548v-92h-218v-608z" />
    <glyph glyph-name="uni0163" unicode="&#x163;" horiz-adv-x="395" 
d="M288 -50q33 0 59 -19.5t26 -59.5q0 -42 -30 -62t-72 -20t-69.5 18.5t-34.5 52.5l49 3q8 -32 45 -32q20 0 32.5 10.5t12.5 29.5q0 20 -12 30.5t-30 10.5q-16 0 -40 -11l-40 18l42 77q-52 10 -75.5 45t-23.5 103v299h-109v79h82q18 0 25.5 7.5t7.5 24.5v87h101v-117h127
v-81h-127v-282q0 -47 13.5 -64t52.5 -17q26 0 61 5v-86q-45 -7 -81 -7h-11l-31 -54q24 12 50 12z" />
    <glyph glyph-name="Tcaron" unicode="&#x164;" horiz-adv-x="596" 
d="M381 880h78l-100 -119h-123l-100 119h79l83 -86zM24 608v92h548v-92h-218v-608h-112v608h-218z" />
    <glyph glyph-name="tcaron" unicode="&#x165;" horiz-adv-x="394" 
d="M291 575v161h79v-59l-39 -102h-40zM361 443h-127v-282q0 -47 13.5 -64t52.5 -17q26 0 61 5v-86q-45 -7 -81 -7q-82 0 -117.5 34.5t-35.5 117.5v299h-109v79h82q18 0 25.5 7.5t7.5 24.5v87h101v-117h127v-81z" />
    <glyph glyph-name="Tbar" unicode="&#x166;" horiz-adv-x="596" 
d="M572 608h-218v-175h146v-66h-146v-367h-112v367h-146v66h146v175h-218v92h548v-92z" />
    <glyph glyph-name="tbar" unicode="&#x167;" horiz-adv-x="395" 
d="M361 443h-127v-122h117v-73h-117v-87q0 -47 13.5 -64t52.5 -17q26 0 61 5v-86q-45 -7 -81 -7q-82 0 -117.5 34.5t-35.5 117.5v104h-94v73h94v122h-109v79h82q18 0 25.5 7.5t7.5 24.5v87h101v-117h127v-81z" />
    <glyph glyph-name="Umacron" unicode="&#x16a;" horiz-adv-x="730" 
d="M206 768v75h317v-75h-317zM82 267v433h112v-424q0 -100 42 -148t129 -48q171 0 171 196v424h112v-433q0 -279 -283 -279t-283 279z" />
    <glyph glyph-name="umacron" unicode="&#x16b;" horiz-adv-x="591" 
d="M148 620v73h297v-73h-297zM418 524h107v-524h-99v104q-51 -116 -185 -116q-87 0 -133.5 51.5t-46.5 149.5v335h107v-302q0 -146 113 -146q65 0 101 48t36 125v275z" />
    <glyph glyph-name="Uring" unicode="&#x16e;" horiz-adv-x="730" 
d="M365 941q44 0 75.5 -25t31.5 -72t-31.5 -72.5t-75.5 -25.5t-75.5 25.5t-31.5 72.5t31.5 72t75.5 25zM365 794q23 0 38.5 13.5t15.5 36.5q0 22 -15.5 35.5t-38.5 13.5t-38.5 -13.5t-15.5 -35.5q0 -23 15.5 -36.5t38.5 -13.5zM82 267v433h112v-424q0 -100 42 -148t129 -48
q171 0 171 196v424h112v-433q0 -279 -283 -279t-283 279z" />
    <glyph glyph-name="uring" unicode="&#x16f;" horiz-adv-x="591" 
d="M297 786q44 0 75.5 -25.5t31.5 -74.5t-31.5 -74.5t-75.5 -25.5t-75.5 25.5t-31.5 74.5t31.5 74.5t75.5 25.5zM297 635q23 0 38.5 13.5t15.5 37.5t-15.5 37.5t-38.5 13.5t-38.5 -13.5t-15.5 -37.5t15.5 -37.5t38.5 -13.5zM418 524h107v-524h-99v104q-51 -116 -185 -116
q-87 0 -133.5 51.5t-46.5 149.5v335h107v-302q0 -146 113 -146q65 0 101 48t36 125v275z" />
    <glyph glyph-name="Uhungarumlaut" unicode="&#x170;" horiz-adv-x="730" 
d="M218 762l77 118h94l-87 -118h-84zM387 762l78 118h94l-87 -118h-85zM82 267v433h112v-424q0 -100 42 -148t129 -48q171 0 171 196v424h112v-433q0 -279 -283 -279t-283 279z" />
    <glyph glyph-name="uhungarumlaut" unicode="&#x171;" horiz-adv-x="591" 
d="M165 590l73 145h84l-79 -145h-78zM317 590l72 145h84l-79 -145h-77zM418 524h107v-524h-99v104q-51 -116 -185 -116q-87 0 -133.5 51.5t-46.5 149.5v335h107v-302q0 -146 113 -146q65 0 101 48t36 125v275z" />
    <glyph glyph-name="Uogonek" unicode="&#x172;" horiz-adv-x="730" 
d="M536 700h112v-433q0 -223 -180 -268q-51 -31 -79 -57.5t-28 -58.5q0 -36 34 -36q37 0 47 49l42 -11q-8 -39 -35.5 -62t-68.5 -23q-39 0 -63.5 20.5t-24.5 57.5q0 64 91 110h-18q-283 0 -283 279v433h112v-424q0 -100 42 -148t129 -48q171 0 171 196v424z" />
    <glyph glyph-name="uogonek" unicode="&#x173;" horiz-adv-x="591" 
d="M498 -104l43 -11q-9 -40 -36.5 -62.5t-68.5 -22.5q-39 0 -63.5 20.5t-24.5 57.5q0 43 31.5 70.5t84.5 51.5h-38v104q-51 -116 -185 -116q-87 0 -133.5 51.5t-46.5 149.5v335h107v-302q0 -146 113 -146q65 0 101 48t36 125v275h107v-524q-50 -31 -78.5 -58t-28.5 -59
q0 -36 33 -36q37 0 47 49z" />
    <glyph glyph-name="Wcircumflex" unicode="&#x174;" horiz-adv-x="975" 
d="M488 849l-83 -85h-79l100 119h123l100 -119h-78zM834 700h117l-168 -700h-167l-129 620l-131 -620h-168l-164 700h120l133 -616l132 616h159l130 -616z" />
    <glyph glyph-name="wcircumflex" unicode="&#x175;" horiz-adv-x="861" 
d="M430 696l-75 -106h-77l95 145h115l94 -145h-76zM724 524h115l-153 -524h-151l-103 470l-106 -470h-153l-151 524h118l115 -447l104 447h149l100 -438z" />
    <glyph glyph-name="Ycircumflex" unicode="&#x176;" horiz-adv-x="668" 
d="M334 849l-83 -85h-78l100 119h123l100 -119h-79zM531 700h122l-263 -416v-284h-112v283l-263 417h128l191 -326z" />
    <glyph glyph-name="ycircumflex" unicode="&#x177;" horiz-adv-x="560" 
d="M280 696l-76 -106h-76l94 145h115l95 -145h-77zM428 524h114l-186 -577q-26 -91 -67 -125t-124 -34q-31 0 -64 4v82q40 -2 57 -2q42 0 64 18.5t37 70.5l12 39h-62l-191 524h115l162 -481z" />
    <glyph glyph-name="Ydieresis" unicode="&#x178;" horiz-adv-x="668" 
d="M289 864v-101h-107v101h107zM487 864v-101h-107v101h107zM531 700h122l-263 -416v-284h-112v283l-263 417h128l191 -326z" />
    <glyph glyph-name="Zacute" unicode="&#x179;" horiz-adv-x="590" 
d="M446 880l-114 -118h-84l87 118h111zM158 92h407v-92h-545v78l397 530h-374v92h512v-78z" />
    <glyph glyph-name="zacute" unicode="&#x17a;" horiz-adv-x="494" 
d="M188 590l77 145h111l-105 -145h-83zM156 84h314v-84h-450v74l307 366h-287v84h422v-74z" />
    <glyph glyph-name="Zdotaccent" unicode="&#x17b;" horiz-adv-x="590" 
d="M356 866v-104h-120v104h120zM158 92h407v-92h-545v78l397 530h-374v92h512v-78z" />
    <glyph glyph-name="zdotaccent" unicode="&#x17c;" horiz-adv-x="494" 
d="M191 605v119h113v-119h-113zM156 84h314v-84h-450v74l307 366h-287v84h422v-74z" />
    <glyph glyph-name="Zcaron" unicode="&#x17d;" horiz-adv-x="590" 
d="M357 761h-123l-100 119h79l83 -86l83 86h78zM158 92h407v-92h-545v78l397 530h-374v92h512v-78z" />
    <glyph glyph-name="zcaron" unicode="&#x17e;" horiz-adv-x="494" 
d="M323 732h76l-94 -145h-115l-95 145h77l75 -106zM156 84h314v-84h-450v74l307 366h-287v84h422v-74z" />
    <glyph glyph-name="Scommaaccent" unicode="&#x218;" horiz-adv-x="619" 
d="M31 220l105 4q7 -148 178 -148q67 0 111 25t44 79q0 38 -27 62.5t-91 45.5l-145 47q-150 48 -150 184q0 96 68.5 144.5t172.5 48.5q112 0 183.5 -55.5t78.5 -154.5l-104 -7q-4 59 -44.5 94t-114.5 35q-61 0 -94.5 -25.5t-33.5 -71.5q0 -71 103 -104l145 -46
q83 -26 124 -71t41 -118q0 -100 -72 -150t-196 -50q-133 0 -205 59.5t-77 172.5zM261 -221v169h96v-64l-51 -105h-45z" />
    <glyph glyph-name="scommaaccent" unicode="&#x219;" horiz-adv-x="509" 
d="M23 153l98 4q10 -92 133 -92q56 0 88 18t32 52q0 26 -21.5 43t-73.5 32l-114 33q-126 36 -126 147q0 75 55.5 110.5t145.5 35.5q94 0 156 -39.5t71 -119.5l-98 -5q-7 43 -41.5 65t-87.5 22q-45 1 -70.5 -16.5t-25.5 -49.5q0 -49 81 -73l114 -32q140 -38 140 -148
q0 -75 -61 -113.5t-166 -38.5q-216 0 -229 165zM202 -221v169h96v-64l-50 -105h-46z" />
    <glyph glyph-name="uni021A" unicode="&#x21a;" horiz-adv-x="596" 
d="M24 608v92h548v-92h-218v-608h-112v608h-218zM250 -221v169h96v-64l-51 -105h-45z" />
    <glyph glyph-name="uni021B" unicode="&#x21b;" horiz-adv-x="395" 
d="M361 443h-127v-282q0 -47 13.5 -64t52.5 -17q26 0 61 5v-86q-45 -7 -81 -7q-82 0 -117.5 34.5t-35.5 117.5v299h-109v79h82q18 0 25.5 7.5t7.5 24.5v87h101v-117h127v-81zM210 -221v169h96v-64l-50 -105h-46z" />
    <glyph glyph-name="circumflex" unicode="&#x2c6;" horiz-adv-x="384" 
d="M40 590l95 145h114l95 -145h-77l-75 106l-75 -106h-77z" />
    <glyph glyph-name="caron" unicode="&#x2c7;" horiz-adv-x="384" 
d="M40 732h77l75 -106l75 106h77l-95 -145h-114z" />
    <glyph glyph-name="breve" unicode="&#x2d8;" horiz-adv-x="377" 
d="M40 734h62q6 -79 86 -79t86 79h63q-2 -66 -39.5 -105t-109.5 -39q-71 0 -108.5 39t-39.5 105z" />
    <glyph glyph-name="dotaccent" unicode="&#x2d9;" horiz-adv-x="193" 
d="M40 605v119h113v-119h-113z" />
    <glyph glyph-name="ring" unicode="&#x2da;" horiz-adv-x="294" 
d="M40 686q0 49 31.5 74.5t75.5 25.5t75.5 -25.5t31.5 -74.5t-31.5 -74.5t-75.5 -25.5t-75.5 25.5t-31.5 74.5zM93 686q0 -24 15.5 -37.5t38.5 -13.5t38.5 13.5t15.5 37.5t-15.5 37.5t-38.5 13.5t-38.5 -13.5t-15.5 -37.5z" />
    <glyph glyph-name="ogonek" unicode="&#x2db;" horiz-adv-x="273" 
d="M40 -122q0 43 31.5 70.5t84.5 51.5h61q-50 -31 -78.5 -58t-28.5 -59q0 -36 33 -36q37 0 47 49l43 -11q-9 -40 -36.5 -62.5t-68.5 -22.5q-39 0 -63.5 20.5t-24.5 57.5z" />
    <glyph glyph-name="tilde" unicode="&#x2dc;" horiz-adv-x="396" 
d="M40 601q0 108 87 108q38 0 79 -27.5t57 -27.5q34 0 34 47h59q0 -109 -86 -109q-38 0 -79.5 27.5t-57.5 27.5q-34 0 -34 -46h-59z" />
    <glyph glyph-name="hungarumlaut" unicode="&#x2dd;" horiz-adv-x="388" 
d="M40 590l72 145h85l-79 -145h-78zM191 590l73 145h84l-79 -145h-78z" />
    <glyph glyph-name="pi" unicode="&#x3c0;" horiz-adv-x="626" 
d="M587 444h-79v-300q0 -37 11 -49.5t32 -12.5t35 2v-86q-44 -4 -63 -4q-63 0 -90 28.5t-27 94.5v327h-195v-444h-105v444h-79v80h560v-80z" />
    <glyph glyph-name="uni0401" unicode="&#x401;" horiz-adv-x="623" 
d="M162 763v101h107v-101h-107zM360 763v101h107v-101h-107zM82 0v700h485v-88h-373v-214h294v-84h-294v-226h387v-88h-499z" />
    <glyph glyph-name="uni0404" unicode="&#x404;" horiz-adv-x="682" 
d="M540 233l108 -8q-17 -109 -91.5 -173t-197.5 -64q-150 0 -233 100t-83 262q0 163 81 262.5t227 99.5q117 0 193.5 -60.5t95.5 -164.5l-107 -9q-13 64 -63.5 103.5t-118.5 39.5q-85 0 -134 -62.5t-60 -160.5h262v-84h-263q9 -105 62 -170t141 -65q74 0 121 43t60 111z" />
    <glyph glyph-name="uni0406" unicode="&#x406;" horiz-adv-x="276" 
d="M82 0v700h112v-700h-112z" />
    <glyph glyph-name="uni0407" unicode="&#x407;" horiz-adv-x="276" 
d="M6 763v101h96v-101h-96zM174 763v101h96v-101h-96zM82 0v700h112v-700h-112z" />
    <glyph glyph-name="uni040E" unicode="&#x40e;" horiz-adv-x="657" 
d="M329 757q-74 0 -112.5 36t-40.5 97h71q3 -29 22 -50t60 -21q74 0 83 71h70q-2 -61 -40.5 -97t-112.5 -36zM518 700h123l-210 -524q-40 -103 -84.5 -142.5t-115.5 -39.5q-45 0 -91 6v87q39 -4 68 -4q36 0 60 17t44 65l9 25h-49l-251 510h125l208 -452z" />
    <glyph glyph-name="uni0410" unicode="&#x410;" horiz-adv-x="681" 
d="M549 0l-57 175h-306l-58 -175h-111l238 700h171l238 -700h-115zM339 639l-125 -378h249z" />
    <glyph glyph-name="uni0411" unicode="&#x411;" horiz-adv-x="656" 
d="M371 415q108 0 178 -50.5t70 -156.5q0 -107 -70 -157.5t-178 -50.5h-289v700h485v-87h-373v-198h177zM361 87q71 0 108.5 31.5t37.5 89.5q0 59 -37.5 90t-108.5 31h-167v-242h167z" />
    <glyph glyph-name="uni0412" unicode="&#x412;" horiz-adv-x="675" 
d="M418 359q98 -6 157 -49.5t59 -124.5q0 -89 -68 -137t-177 -48h-307v700h302q103 0 166.5 -44t63.5 -132q0 -151 -196 -165zM194 613v-215h184q59 0 91.5 29t32.5 80q0 50 -34 78t-95 28h-179zM379 87q69 0 106 29.5t37 83.5q0 53 -35.5 83.5t-101.5 30.5h-191v-227h185z
" />
    <glyph glyph-name="uni0413" unicode="&#x413;" horiz-adv-x="558" 
d="M82 0v700h448v-92h-336v-608h-112z" />
    <glyph glyph-name="uni0414" unicode="&#x414;" horiz-adv-x="673" 
d="M594 92h64v-255h-105v163h-440v-163h-104v255h51q63 135 79 608h455v-608zM482 92v516h-242q-10 -210 -32 -347q-18 -106 -44 -169h318z" />
    <glyph glyph-name="uni0415" unicode="&#x415;" horiz-adv-x="623" 
d="M82 0v700h485v-88h-373v-214h294v-84h-294v-226h387v-88h-499z" />
    <glyph glyph-name="uni0416" unicode="&#x416;" horiz-adv-x="1022" 
d="M1002 0h-132l-222 310h-83v-310h-109v310h-82l-222 -310h-132l266 361l-256 339h129l214 -303h83v303h109v-303h84l214 303h129l-256 -339z" />
    <glyph glyph-name="uni0417" unicode="&#x417;" horiz-adv-x="621" 
d="M356 360q103 -6 163.5 -50.5t60.5 -128.5q0 -94 -73.5 -143.5t-195.5 -49.5q-261 0 -282 222l107 6q14 -141 175 -141q75 0 116 31t41 90q0 118 -158 118h-84v84h79q71 0 107 29.5t36 83.5q0 55 -36.5 84.5t-100.5 29.5q-65 0 -109 -32t-51 -99l-107 9q12 105 82 157
t185 52q110 0 179.5 -46t69.5 -137q0 -76 -51.5 -119.5t-152.5 -49.5z" />
    <glyph glyph-name="uni0418" unicode="&#x418;" horiz-adv-x="742" 
d="M486 700h174v-700h-109v621l-295 -621h-174v700h109v-621z" />
    <glyph glyph-name="uni0419" unicode="&#x419;" horiz-adv-x="742" 
d="M371 757q-74 0 -112.5 36t-40.5 97h71q3 -29 22 -50t60 -21q74 0 83 71h70q-2 -61 -40.5 -97t-112.5 -36zM486 700h174v-700h-109v621l-295 -621h-174v700h109v-621z" />
    <glyph glyph-name="uni041A" unicode="&#x41a;" horiz-adv-x="680" 
d="M660 0h-133l-238 310h-95v-310h-112v700h112v-303h94l221 303h130l-264 -339z" />
    <glyph glyph-name="uni041B" unicode="&#x41b;" horiz-adv-x="709" 
d="M154 700h473v-700h-112v608h-259q-1 -40 -4 -115q-3 -102 -5 -149t-8.5 -118t-17 -102.5t-28 -67.5t-44.5 -48.5t-65 -12.5q-33 0 -66 4v90q24 -3 42 -3q15 0 27 8.5t20.5 28t14.5 42t10.5 59.5t7 71t4.5 86.5t3 95.5t3 108t4 115z" />
    <glyph glyph-name="uni041C" unicode="&#x41c;" horiz-adv-x="920" 
d="M644 700h194v-700h-108l1 637l-195 -637h-152l-195 635v-635h-107v700h196l183 -636z" />
    <glyph glyph-name="uni041D" unicode="&#x41d;" horiz-adv-x="726" 
d="M532 700h112v-700h-112v310h-338v-310h-112v700h112v-298h338v298z" />
    <glyph glyph-name="uni041E" unicode="&#x41e;" horiz-adv-x="728" 
d="M43 350q0 164 83.5 263t237.5 99t237.5 -99t83.5 -263t-83.5 -263t-237.5 -99t-237.5 99t-83.5 263zM155 350q0 -120 55 -195.5t154 -75.5t154 75.5t55 195.5t-55 195.5t-154 75.5t-154 -75.5t-55 -195.5z" />
    <glyph glyph-name="uni041F" unicode="&#x41f;" horiz-adv-x="722" 
d="M640 700v-700h-112v608h-334v-608h-112v700h558z" />
    <glyph glyph-name="uni0420" unicode="&#x420;" horiz-adv-x="651" 
d="M82 0v700h288q105 0 174 -53t69 -163t-67 -160.5t-173 -50.5h-179v-273h-112zM194 359h163q67 0 105.5 31t38.5 94q0 62 -38.5 93t-105.5 31h-163v-249z" />
    <glyph glyph-name="uni0421" unicode="&#x421;" horiz-adv-x="679" 
d="M43 350q0 163 81 262.5t227 99.5q120 0 196 -63.5t90 -171.5l-106 -9q-10 69 -59.5 111t-120.5 42q-96 0 -146 -78t-50 -193q0 -118 54 -194.5t150 -76.5q76 0 123 46.5t56 117.5l107 -7q-14 -114 -87.5 -181t-198.5 -67q-151 0 -233.5 98.5t-82.5 263.5z" />
    <glyph glyph-name="uni0422" unicode="&#x422;" horiz-adv-x="596" 
d="M24 608v92h548v-92h-218v-608h-112v608h-218z" />
    <glyph glyph-name="uni0423" unicode="&#x423;" horiz-adv-x="657" 
d="M518 700h123l-210 -524q-40 -103 -84.5 -142.5t-115.5 -39.5q-45 0 -91 6v87q39 -4 68 -4q36 0 60 17t44 65l9 25h-49l-251 510h125l208 -452z" />
    <glyph glyph-name="uni0424" unicode="&#x424;" horiz-adv-x="852" 
d="M496 651q146 0 231 -73.5t85 -210.5t-85 -210.5t-231 -73.5h-16v-83h-108v83h-16q-146 0 -231 73.5t-85 210.5t85 210.5t231 73.5h16v61h108v-61h16zM363 170h9v394h-9q-96 0 -153.5 -51t-57.5 -146t57.5 -146t153.5 -51zM489 170q96 0 153.5 51t57.5 146t-57.5 146
t-153.5 51h-9v-394h9z" />
    <glyph glyph-name="uni0425" unicode="&#x425;" horiz-adv-x="662" 
d="M24 0l242 356l-223 344h129l158 -256l159 256h124l-222 -339l245 -361h-130l-179 273l-180 -273h-123z" />
    <glyph glyph-name="uni0426" unicode="&#x426;" horiz-adv-x="718" 
d="M82 0v700h112v-608h334v608h112v-608h63v-255h-104v163h-517z" />
    <glyph glyph-name="uni0427" unicode="&#x427;" horiz-adv-x="677" 
d="M483 700h112v-700h-112v295q-96 -30 -194 -30q-230 0 -230 216v219h112v-199q0 -79 36.5 -111.5t114.5 -32.5q84 0 161 30v313z" />
    <glyph glyph-name="uni0428" unicode="&#x428;" horiz-adv-x="999" 
d="M82 0v700h109v-608h254v608h109v-608h254v608h109v-700h-835z" />
    <glyph glyph-name="uni0429" unicode="&#x429;" horiz-adv-x="996" 
d="M82 0v700h109v-608h254v608h109v-608h254v608h109v-608h64v-255h-105v163h-794z" />
    <glyph glyph-name="uni042A" unicode="&#x42a;" horiz-adv-x="736" 
d="M460 425q106 0 174.5 -52t68.5 -160t-69 -160.5t-174 -52.5h-282v608h-157v92h269v-275h170zM447 92q67 0 105.5 30.5t38.5 90.5q0 61 -38.5 91.5t-105.5 30.5h-157v-243h157z" />
    <glyph glyph-name="uni042B" unicode="&#x42b;" horiz-adv-x="873" 
d="M350 425q106 0 174.5 -52t68.5 -160t-69 -160.5t-174 -52.5h-268v700h112v-275h156zM679 700h112v-700h-112v700zM337 92q67 0 105.5 30.5t38.5 90.5q0 61 -38.5 91.5t-105.5 30.5h-143v-243h143z" />
    <glyph glyph-name="uni042C" unicode="&#x42c;" horiz-adv-x="640" 
d="M364 425q106 0 174.5 -52t68.5 -160t-69 -160.5t-174 -52.5h-282v700h112v-275h170zM351 92q67 0 105.5 30.5t38.5 90.5q0 61 -38.5 91.5t-105.5 30.5h-157v-243h157z" />
    <glyph glyph-name="uni042D" unicode="&#x42d;" horiz-adv-x="682" 
d="M330 712q147 0 228 -99.5t81 -262.5t-83.5 -262.5t-233.5 -99.5q-122 0 -196.5 64t-91.5 173l107 8q13 -68 60.5 -111t120.5 -43q89 0 142 65.5t61 169.5h-262v84h261q-10 98 -59 160.5t-135 62.5q-67 0 -117.5 -39.5t-63.5 -103.5l-107 9q19 104 95.5 164.5t192.5 60.5z
" />
    <glyph glyph-name="uni042E" unicode="&#x42e;" horiz-adv-x="980" 
d="M625 712q153 0 232.5 -97.5t79.5 -264.5t-79.5 -264.5t-232.5 -97.5q-143 0 -222.5 86t-88.5 236h-120v-310h-112v700h112v-298h121q12 144 91 227t219 83zM625 79q97 0 148.5 74t51.5 197t-51.5 197t-148.5 74t-148.5 -74t-51.5 -197t51.5 -197t148.5 -74z" />
    <glyph glyph-name="uni042F" unicode="&#x42f;" horiz-adv-x="675" 
d="M593 700v-700h-112v281h-143l-179 -281h-134l198 285q-81 13 -130 63t-49 140q0 107 69.5 159.5t174.5 52.5h305zM481 365v245h-181q-66 0 -105 -31t-39 -91t39 -91.5t105 -31.5h181z" />
    <glyph glyph-name="uni0430" unicode="&#x430;" horiz-adv-x="567" 
d="M40 139q0 144 211 164l148 14v40q0 46 -28.5 74t-85.5 28q-51 0 -84 -23.5t-36 -68.5h-98q3 87 63 128t155 41q107 0 164 -51t57 -150v-335h-99v102q-25 -54 -75 -84t-121 -30q-85 0 -128 42t-43 109zM146 144q0 -36 24.5 -58.5t73.5 -22.5q71 0 113 44.5t42 114.5v28
l-134 -13q-119 -12 -119 -93z" />
    <glyph glyph-name="uni0431" unicode="&#x431;" horiz-adv-x="595" 
d="M321 507q105 0 170.5 -70.5t65.5 -189.5q0 -120 -69 -189.5t-188 -69.5q-256 0 -256 336q0 170 49 261.5t159 116.5q17 4 140 21q74 11 112 25v-84q-29 -16 -100 -27q-20 -3 -51 -6.5t-48 -5.5q-39 -5 -67 -18t-54 -41t-42 -80.5t-22 -129.5q21 71 72.5 111t128.5 40z
M300 72q70 0 110.5 47t40.5 128t-40.5 128.5t-110.5 47.5q-69 0 -109.5 -47.5t-40.5 -128.5t40 -128t110 -47z" />
    <glyph glyph-name="uni0432" unicode="&#x432;" horiz-adv-x="556" 
d="M362 271q157 -16 157 -128q0 -61 -46.5 -102t-150.5 -41h-256v524h243q96 0 144.5 -36.5t48.5 -95.5q0 -102 -140 -121zM173 444v-142h128q94 0 94 71t-99 71h-123zM312 80q100 0 100 77q0 75 -105 75h-134v-152h139z" />
    <glyph glyph-name="uni0433" unicode="&#x433;" horiz-adv-x="456" 
d="M66 0v524h364v-88h-257v-436h-107z" />
    <glyph glyph-name="uni0434" unicode="&#x434;" horiz-adv-x="576" 
d="M494 88h64v-228h-101v140h-344v-140h-101v228h40q16 35 26 104.5t14 129t12 202.5h390v-436zM387 88v348h-191q-1 -16 -3.5 -49t-3.5 -46.5t-3 -41t-3 -40t-3 -34t-4 -33.5t-4.5 -29t-5 -28t-5.5 -23.5t-7 -23.5h233z" />
    <glyph glyph-name="uni0435" unicode="&#x435;" horiz-adv-x="575" 
d="M38 262q0 135 70 204.5t186 69.5q245 0 245 -292v-13h-394q6 -81 47.5 -123.5t108.5 -42.5q95 0 129 81l102 -7q-21 -71 -80.5 -111t-150.5 -40q-121 0 -192 69t-71 205zM146 301h287q-3 74 -40 116t-99 42t-101.5 -40t-46.5 -118z" />
    <glyph glyph-name="uni0436" unicode="&#x436;" horiz-adv-x="825" 
d="M815 0h-131l-164 223h-56v-223h-103v223h-56l-164 -223h-131l216 273l-208 251h126l158 -217h59v217h103v-217h59l158 217h125l-208 -251z" />
    <glyph glyph-name="uni0437" unicode="&#x437;" horiz-adv-x="532" 
d="M333 271q162 -16 162 -132q0 -67 -53 -109t-177 -42q-227 0 -239 175l103 5q8 -98 136 -98q123 0 123 84q0 78 -132 78h-61v70h56q61 0 90.5 20.5t29.5 54.5q0 36 -28.5 56.5t-76.5 20.5q-50 0 -82.5 -23t-37.5 -70l-103 6q6 86 66.5 127.5t156.5 41.5q106 0 159 -37.5
t53 -100.5q0 -106 -145 -127z" />
    <glyph glyph-name="uni0438" unicode="&#x438;" horiz-adv-x="614" 
d="M389 524h159v-524h-103v446l-220 -446h-159v524h103v-446z" />
    <glyph glyph-name="uni0439" unicode="&#x439;" horiz-adv-x="614" 
d="M307 591q-72 0 -109.5 38t-39.5 103h71q3 -32 21.5 -55.5t56.5 -23.5q69 0 78 79h70q-2 -65 -39 -103t-109 -38zM389 524h159v-524h-103v446l-220 -446h-159v524h103v-446z" />
    <glyph glyph-name="uni043A" unicode="&#x43a;" horiz-adv-x="559" 
d="M549 0h-133l-181 223h-62v-223h-107v524h107v-217h64l171 217h127l-222 -250z" />
    <glyph glyph-name="uni043B" unicode="&#x43b;" horiz-adv-x="575" 
d="M122 524h387v-524h-107v436h-186q-3 -37 -7 -103q-3 -56 -5 -81.5t-6 -67t-8 -60t-11.5 -46t-17 -39t-23.5 -24.5t-32 -17.5t-41 -4.5q-27 0 -48 4v86q11 -1 25 -1q42 0 58 105q7 50 20 295q1 22 2 42z" />
    <glyph glyph-name="uni043C" unicode="&#x43c;" horiz-adv-x="781" 
d="M538 524h177v-524h-102v450l-157 -450h-131l-156 450v-450h-103v524h178l148 -464z" />
    <glyph glyph-name="uni043D" unicode="&#x43d;" horiz-adv-x="596" 
d="M66 0v524h107v-213h250v213h107v-524h-107v223h-250v-223h-107z" />
    <glyph glyph-name="uni043E" unicode="&#x43e;" horiz-adv-x="589" 
d="M38 262q0 127 69.5 200.5t186.5 73.5q118 0 187.5 -73.5t69.5 -200.5t-69.5 -200.5t-187.5 -73.5q-117 0 -186.5 73.5t-69.5 200.5zM144 262q0 -86 40.5 -138t109.5 -52t110 52t41 138t-41 138t-110 52t-109.5 -52t-40.5 -138z" />
    <glyph glyph-name="uni043F" unicode="&#x43f;" horiz-adv-x="590" 
d="M66 0v524h458v-524h-107v436h-244v-436h-107z" />
    <glyph glyph-name="uni0440" unicode="&#x440;" horiz-adv-x="605" 
d="M66 -200v724h99v-105q25 56 73 86.5t108 30.5q98 0 159.5 -73.5t61.5 -200.5t-61.5 -200.5t-158.5 -73.5q-118 0 -174 105v-293h-107zM168 262q0 -86 39.5 -138t106.5 -52q68 0 107.5 52t39.5 138t-39.5 138t-107.5 52q-67 0 -106.5 -52t-39.5 -138z" />
    <glyph glyph-name="uni0441" unicode="&#x441;" horiz-adv-x="558" 
d="M38 262q0 131 67 202.5t182 71.5q94 0 158 -49.5t76 -139.5l-103 -9q-10 56 -45.5 85t-85.5 29q-65 0 -104 -50t-39 -140t39.5 -140t106.5 -50q53 0 88.5 30.5t45.5 88.5l103 -8q-12 -93 -76.5 -144t-160.5 -51q-117 0 -184.5 71t-67.5 203z" />
    <glyph glyph-name="uni0442" unicode="&#x442;" horiz-adv-x="503" 
d="M22 436v88h459v-88h-176v-436h-107v436h-176z" />
    <glyph glyph-name="uni0443" unicode="&#x443;" horiz-adv-x="560" 
d="M428 524h114l-186 -577q-26 -91 -67 -125t-124 -34q-31 0 -64 4v82q40 -2 57 -2q42 0 64 18.5t37 70.5l12 39h-62l-191 524h115l162 -481z" />
    <glyph glyph-name="uni0444" unicode="&#x444;" horiz-adv-x="750" 
d="M434 536q131 0 203.5 -73t72.5 -201t-72.5 -201t-203.5 -73h-6v-188h-104v188h-7q-131 0 -204 73t-73 201t73 201t204 73h7v200h104v-200h6zM320 72h4v380h-4q-81 0 -128.5 -50.5t-47.5 -139.5t47.5 -139.5t128.5 -50.5zM431 72q81 0 127.5 50.5t46.5 139.5t-46.5 139.5
t-127.5 50.5h-3v-380h3z" />
    <glyph glyph-name="uni0445" unicode="&#x445;" horiz-adv-x="568" 
d="M547 0h-128l-138 192l-137 -192h-123l199 265l-190 259h129l125 -185l126 185h123l-187 -256z" />
    <glyph glyph-name="uni0446" unicode="&#x446;" horiz-adv-x="606" 
d="M66 0v524h107v-436h244v436h107v-436h63v-228h-101v140h-420z" />
    <glyph glyph-name="uni0447" unicode="&#x447;" horiz-adv-x="564" 
d="M391 524h107v-524h-107v210q-91 -20 -160 -20q-183 0 -183 183v151h107v-138q0 -59 26.5 -83.5t86.5 -24.5q52 0 123 20v226z" />
    <glyph glyph-name="uni0448" unicode="&#x448;" horiz-adv-x="866" 
d="M66 0v524h105v-436h209v436h105v-436h210v436h105v-524h-734z" />
    <glyph glyph-name="uni0449" unicode="&#x449;" horiz-adv-x="882" 
d="M66 0v524h105v-436h209v436h105v-436h210v436h105v-436h63v-228h-101v140h-696z" />
    <glyph glyph-name="uni044A" unicode="&#x44a;" horiz-adv-x="622" 
d="M380 331q208 0 208 -165q0 -166 -208 -166h-186h-50v436h-122v88h229v-193h129zM372 82q109 0 109 85q0 84 -109 84h-121v-169h121z" />
    <glyph glyph-name="uni044B" unicode="&#x44b;" horiz-adv-x="749" 
d="M290 331q208 0 208 -165q0 -166 -208 -166h-174h-50v524h107v-193h117zM576 524h107v-524h-107v524zM282 82q109 0 109 85q0 84 -109 84h-109v-169h109z" />
    <glyph glyph-name="uni044C" unicode="&#x44c;" horiz-adv-x="544" 
d="M302 331q208 0 208 -165q0 -166 -208 -166h-186h-50v524h107v-193h129zM294 82q109 0 109 85q0 84 -109 84h-121v-169h121z" />
    <glyph glyph-name="uni044D" unicode="&#x44d;" horiz-adv-x="556" 
d="M269 536q115 0 182 -71.5t67 -202.5q0 -132 -67.5 -203t-184.5 -71q-93 0 -156.5 48t-78.5 137l104 6q12 -52 47 -81t84 -29q61 0 99.5 42.5t45.5 119.5h-190v72h189q-8 72 -45.5 112t-95.5 40q-47 0 -82 -27t-47 -78l-103 7q14 85 77.5 132t154.5 47z" />
    <glyph glyph-name="uni044E" unicode="&#x44e;" horiz-adv-x="807" 
d="M519 536q116 0 183 -72t67 -202t-67 -202t-183 -72q-107 0 -172.5 61.5t-75.5 173.5h-98v-223h-107v524h107v-213h99q13 107 78 166t169 59zM519 72q66 0 105 50.5t39 139.5t-39 139.5t-105 50.5t-105 -50.5t-39 -139.5t39 -139.5t105 -50.5z" />
    <glyph glyph-name="uni044F" unicode="&#x44f;" horiz-adv-x="558" 
d="M248 524h244v-524h-108v209h-97l-133 -209h-126l154 214q-136 25 -136 152q0 76 52 117t150 41zM384 278v164h-123q-52 0 -80 -21.5t-28 -60.5t28 -60.5t80 -21.5h123z" />
    <glyph glyph-name="uni0451" unicode="&#x451;" horiz-adv-x="575" 
d="M147 605v111h97v-111h-97zM326 605v111h96v-111h-96zM38 262q0 135 70 204.5t186 69.5q245 0 245 -292v-13h-394q6 -81 47.5 -123.5t108.5 -42.5q95 0 129 81l102 -7q-21 -71 -80.5 -111t-150.5 -40q-121 0 -192 69t-71 205zM146 301h287q-3 74 -40 116t-99 42
t-101.5 -40t-46.5 -118z" />
    <glyph glyph-name="uni0454" unicode="&#x454;" horiz-adv-x="556" 
d="M421 179l104 -6q-15 -89 -78 -137t-157 -48q-117 0 -184.5 71t-67.5 203q0 131 67 202.5t182 71.5q91 0 154.5 -47t77.5 -132l-103 -7q-12 51 -47 78t-82 27q-57 0 -94.5 -40t-46.5 -112h189v-72h-190q7 -77 45.5 -119.5t99.5 -42.5q50 0 84.5 29t46.5 81z" />
    <glyph glyph-name="uni0456" unicode="&#x456;" horiz-adv-x="242" 
d="M64 605v119h113v-119h-113zM67 0v524h107v-524h-107z" />
    <glyph glyph-name="uni0457" unicode="&#x457;" horiz-adv-x="236" 
d="M-5 605v111h91v-111h-91zM150 605v111h91v-111h-91zM64 0v524h107v-524h-107z" />
    <glyph glyph-name="uni045E" unicode="&#x45e;" horiz-adv-x="560" 
d="M280 591q-72 0 -109.5 38t-39.5 103h71q7 -79 78 -79q69 0 78 79h70q-2 -65 -39 -103t-109 -38zM428 524h114l-186 -577q-26 -91 -67 -125t-124 -34q-31 0 -64 4v82q40 -2 57 -2q42 0 64 18.5t37 70.5l12 39h-62l-191 524h115l162 -481z" />
    <glyph glyph-name="uni0490" unicode="&#x490;" horiz-adv-x="564" 
d="M82 0v700h343v168h105v-260h-336v-608h-112z" />
    <glyph glyph-name="uni0491" unicode="&#x491;" horiz-adv-x="460" 
d="M66 0v524h263v145h101v-233h-257v-436h-107z" />
    <glyph glyph-name="uni04C1" unicode="&#x4c1;" horiz-adv-x="1022" 
d="M511 757q-74 0 -112.5 36t-40.5 97h71q3 -29 22 -50t60 -21q74 0 83 71h70q-2 -61 -40.5 -97t-112.5 -36zM1002 0h-132l-222 310h-83v-310h-109v310h-82l-222 -310h-132l266 361l-256 339h129l214 -303h83v303h109v-303h84l214 303h129l-256 -339z" />
    <glyph glyph-name="uni04C2" unicode="&#x4c2;" horiz-adv-x="825" 
d="M412 591q-72 0 -109 38t-39 103h71q3 -33 21 -56t56 -23q71 0 78 79h71q-2 -65 -39.5 -103t-109.5 -38zM815 0h-131l-164 223h-56v-223h-103v223h-56l-164 -223h-131l216 273l-208 251h126l158 -217h59v217h103v-217h59l158 217h125l-208 -251z" />
    <glyph glyph-name="Wgrave" unicode="&#x1e80;" horiz-adv-x="975" 
d="M536 762h-84l-114 118h110zM834 700h117l-168 -700h-167l-129 620l-131 -620h-168l-164 700h120l133 -616l132 616h159l130 -616z" />
    <glyph glyph-name="wgrave" unicode="&#x1e81;" horiz-adv-x="861" 
d="M490 590h-83l-106 145h111zM724 524h115l-153 -524h-151l-103 470l-106 -470h-153l-151 524h118l115 -447l104 447h149l100 -438z" />
    <glyph glyph-name="Wacute" unicode="&#x1e82;" horiz-adv-x="975" 
d="M638 880l-114 -118h-84l87 118h111zM834 700h117l-168 -700h-167l-129 620l-131 -620h-168l-164 700h120l133 -616l132 616h159l130 -616z" />
    <glyph glyph-name="wacute" unicode="&#x1e83;" horiz-adv-x="861" 
d="M559 735l-105 -145h-83l77 145h111zM724 524h115l-153 -524h-151l-103 470l-106 -470h-153l-151 524h118l115 -447l104 447h149l100 -438z" />
    <glyph glyph-name="Wdieresis" unicode="&#x1e84;" horiz-adv-x="975" 
d="M442 864v-101h-107v101h107zM640 864v-101h-106v101h106zM834 700h117l-168 -700h-167l-129 620l-131 -620h-168l-164 700h120l133 -616l132 616h159l130 -616z" />
    <glyph glyph-name="wdieresis" unicode="&#x1e85;" horiz-adv-x="861" 
d="M390 716v-111h-97v111h97zM568 716v-111h-97v111h97zM724 524h115l-153 -524h-151l-103 470l-106 -470h-153l-151 524h118l115 -447l104 447h149l100 -438z" />
    <glyph glyph-name="uni1E9E" unicode="&#x1e9e;" horiz-adv-x="664" 
d="M553 355q73 -56 73 -160q0 -100 -64.5 -151.5t-172.5 -51.5q-39 0 -81 8v85q36 -6 58 -6q66 0 107 33t41 97q0 61 -39 92t-104 31q-29 0 -72 -8v82l154 207h-144q-58 0 -91.5 -36t-33.5 -109v-468h-112v481q0 219 245 219h255v-73l-174 -225q97 -2 155 -47z" />
    <glyph glyph-name="Ygrave" unicode="&#x1ef2;" horiz-adv-x="668" 
d="M382 762h-84l-114 118h111zM531 700h122l-263 -416v-284h-112v283l-263 417h128l191 -326z" />
    <glyph glyph-name="ygrave" unicode="&#x1ef3;" horiz-adv-x="560" 
d="M339 590h-83l-105 145h111zM428 524h114l-186 -577q-26 -91 -67 -125t-124 -34q-31 0 -64 4v82q40 -2 57 -2q42 0 64 18.5t37 70.5l12 39h-62l-191 524h115l162 -481z" />
    <glyph glyph-name="endash" unicode="&#x2013;" horiz-adv-x="553" 
d="M55 340h443v-83h-443v83z" />
    <glyph glyph-name="emdash" unicode="&#x2014;" horiz-adv-x="682" 
d="M55 340h572v-83h-572v83z" />
    <glyph glyph-name="quoteleft" unicode="&#x2018;" horiz-adv-x="213" 
d="M154 712v-226h-105v74l59 152h46z" />
    <glyph glyph-name="quoteright" unicode="&#x2019;" horiz-adv-x="213" 
d="M59 474v226h105v-74l-59 -152h-46z" />
    <glyph glyph-name="quotesinglbase" unicode="&#x201a;" horiz-adv-x="213" 
d="M59 -96v226h105v-74l-59 -152h-46z" />
    <glyph glyph-name="quotedblleft" unicode="&#x201c;" horiz-adv-x="380" 
d="M154 712v-226h-105v74l59 152h46zM321 712v-226h-105v74l59 152h46z" />
    <glyph glyph-name="quotedblright" unicode="&#x201d;" horiz-adv-x="380" 
d="M59 474v226h105v-74l-59 -152h-46zM226 474v226h105v-74l-59 -152h-46z" />
    <glyph glyph-name="quotedblbase" unicode="&#x201e;" horiz-adv-x="380" 
d="M59 -96v226h105v-74l-59 -152h-46zM226 -96v226h105v-74l-59 -152h-46z" />
    <glyph glyph-name="dagger" unicode="&#x2020;" horiz-adv-x="435" 
d="M388 524v-79h-120v-503h-100v503h-120v79h120v176h100v-176h120z" />
    <glyph glyph-name="daggerdbl" unicode="&#x2021;" horiz-adv-x="443" 
d="M392 445h-120v-238h120v-79h-120v-186h-100v186h-120v79h120v238h-120v79h120v176h100v-176h120v-79z" />
    <glyph glyph-name="bullet" unicode="&#x2022;" horiz-adv-x="395" 
d="M197 202q-50 0 -82 31.5t-32 81.5q0 49 32 81t82 31q49 1 82 -31t33 -81t-32.5 -81t-82.5 -32z" />
    <glyph glyph-name="ellipsis" unicode="&#x2026;" horiz-adv-x="682" 
d="M63 0v130h121v-130h-121zM280 0v130h121v-130h-121zM498 0v130h121v-130h-121z" />
    <glyph glyph-name="perthousand" unicode="&#x2030;" horiz-adv-x="1178" 
d="M30 535q0 80 45 125.5t121 45.5q77 0 121.5 -45.5t44.5 -125.5t-44.5 -125.5t-121.5 -45.5q-76 0 -121 45.5t-45 125.5zM127 0l480 700h71l-480 -700h-71zM107 535q0 -51 24 -79.5t65 -28.5t65 28.5t24 79.5t-23.5 79.5t-65.5 28.5t-65.5 -28.5t-23.5 -79.5zM443 166
q0 79 44.5 125t121.5 46q78 0 122 -46t44 -125q0 -80 -44 -126t-122 -46q-77 0 -121.5 46t-44.5 126zM823 166q0 79 45 125t121 46q78 0 122.5 -46t44.5 -125q0 -80 -44.5 -126t-122.5 -46q-77 0 -121.5 46.5t-44.5 125.5zM519 166q0 -51 24 -80t66 -29t66 29t24 80
t-24.5 80t-65.5 29t-65.5 -29t-24.5 -80zM899 166q0 -51 24 -80t66 -29t66 28.5t24 80.5q0 51 -24 80t-66 29q-41 0 -65.5 -29t-24.5 -80z" />
    <glyph glyph-name="guilsinglleft" unicode="&#x2039;" horiz-adv-x="298" 
d="M257 459l-144 -179l144 -179h-104l-124 156v46l124 156h104z" />
    <glyph glyph-name="guilsinglright" unicode="&#x203a;" horiz-adv-x="298" 
d="M145 459l124 -156v-46l-124 -156h-104l145 179l-145 179h104z" />
    <glyph glyph-name="fraction" unicode="&#x2044;" horiz-adv-x="167" 
d="M-196 0l480 700h79l-480 -700h-79z" />
    <glyph glyph-name="uni2070" unicode="&#x2070;" horiz-adv-x="455" 
d="M44 549q0 105 47.5 165t135.5 60t136 -60t48 -165q0 -106 -48 -165.5t-136 -59.5t-135.5 59.5t-47.5 165.5zM128 549q0 -76 26.5 -116.5t72.5 -40.5t72.5 40.5t26.5 116.5q0 75 -26 115t-73 40q-46 0 -72.5 -40t-26.5 -115z" />
    <glyph glyph-name="uni2074" unicode="&#x2074;" horiz-adv-x="440" 
d="M343 495h73v-68h-73v-94h-85v94h-237v63l184 274h138v-269zM103 495h155v227z" />
    <glyph glyph-name="uni2075" unicode="&#x2075;" horiz-adv-x="410" 
d="M228 613q67 0 107.5 -34.5t40.5 -101.5q0 -73 -48 -112t-125 -39q-69 0 -117 32t-57 92l82 6q7 -31 32.5 -46.5t59.5 -15.5q40 0 64.5 22t24.5 61q0 40 -25 61t-65 21q-59 0 -86 -40l-75 6l19 239h290v-68h-227l-10 -121q41 38 115 38z" />
    <glyph glyph-name="uni2076" unicode="&#x2076;" horiz-adv-x="440" 
d="M253 609q65 0 107.5 -35.5t42.5 -101.5q0 -70 -47 -109t-127 -39q-185 0 -185 218q0 116 48.5 174t137.5 58q67 0 108.5 -32t47.5 -91l-81 -5q-4 27 -23.5 43.5t-51.5 16.5q-56 0 -83 -54q-18 -38 -18 -98q40 55 124 55zM229 392q41 0 65 21.5t24 58.5t-24 58.5t-65 21.5
t-65.5 -21.5t-24.5 -58.5t24.5 -58.5t65.5 -21.5z" />
    <glyph glyph-name="uni2077" unicode="&#x2077;" horiz-adv-x="359" 
d="M19 764h326v-57q-131 -185 -167 -374h-90q40 185 174 363h-243v68z" />
    <glyph glyph-name="uni2078" unicode="&#x2078;" horiz-adv-x="434" 
d="M290 559q49 -12 78.5 -40.5t29.5 -71.5q0 -59 -52.5 -91t-128.5 -32t-128.5 32t-52.5 91q0 43 29.5 71.5t79.5 40.5q-97 23 -97 101q0 56 48.5 85t120.5 29t120.5 -29.5t48.5 -84.5q0 -77 -96 -101zM217 711q-41 0 -64 -16t-23 -46t23 -46t64 -16q40 0 63 16t23 46
t-23 46t-63 16zM217 387q45 0 71.5 18t26.5 51t-26.5 51t-71.5 18q-46 0 -72.5 -18t-26.5 -51t26.5 -51t72.5 -18z" />
    <glyph glyph-name="uni2079" unicode="&#x2079;" horiz-adv-x="440" 
d="M211 774q185 0 185 -218q0 -117 -48 -174.5t-138 -57.5q-68 0 -109 32t-48 91l82 5q3 -27 22.5 -43.5t52.5 -16.5q60 0 85 60q16 36 16 95q-39 -56 -124 -56q-64 0 -107 35.5t-43 100.5q0 69 47 108t127 39zM211 548q41 0 65 21.5t24 57.5t-24 57.5t-65 21.5t-65.5 -21.5
t-24.5 -57.5t24.5 -57.5t65.5 -21.5z" />
    <glyph glyph-name="uni2080" unicode="&#x2080;" horiz-adv-x="455" 
d="M44 99q0 105 47.5 165t135.5 60t136 -60t48 -165q0 -106 -48 -165.5t-136 -59.5t-135.5 59.5t-47.5 165.5zM128 99q0 -76 26.5 -116.5t72.5 -40.5t72.5 40.5t26.5 116.5q0 75 -26 115t-73 40q-46 0 -72.5 -40t-26.5 -115z" />
    <glyph glyph-name="uni2081" unicode="&#x2081;" horiz-adv-x="287" 
d="M132 315h69v-431h-85v334l-81 -64v85z" />
    <glyph glyph-name="uni2082" unicode="&#x2082;" horiz-adv-x="371" 
d="M130 -50h216v-69h-329v63l142 129q35 31 49 45t28 36.5t14 43.5q0 27 -17.5 42t-45.5 15q-69 0 -77 -92l-82 6q6 78 49 116.5t110 38.5q64 0 105.5 -32.5t41.5 -93.5q0 -38 -21 -72t-75 -81z" />
    <glyph glyph-name="uni2083" unicode="&#x2083;" horiz-adv-x="388" 
d="M301 124q55 -32 55 -105q0 -70 -49 -106t-125 -36q-72 0 -117.5 33.5t-52.5 100.5l82 5q10 -71 88 -71q41 0 65 19.5t24 54.5q0 32 -22 51.5t-66 19.5q-32 0 -68 -7v57l120 107h-200v68h308v-61l-136 -107q56 -2 94 -23z" />
    <glyph glyph-name="uni2084" unicode="&#x2084;" horiz-adv-x="440" 
d="M343 46h73v-68h-73v-94h-85v94h-237v63l184 274h138v-269zM103 46h155v227z" />
    <glyph glyph-name="uni2085" unicode="&#x2085;" horiz-adv-x="410" 
d="M228 164q67 0 107.5 -34.5t40.5 -101.5q0 -73 -48 -112t-125 -39q-69 0 -117 32t-57 92l82 6q7 -31 32.5 -46.5t59.5 -15.5q40 0 64.5 22t24.5 61q0 40 -25 61t-65 21q-59 0 -86 -40l-75 6l19 239h290v-68h-227l-10 -121q41 38 115 38z" />
    <glyph glyph-name="uni2086" unicode="&#x2086;" horiz-adv-x="440" 
d="M253 159q65 0 107.5 -35.5t42.5 -101.5q0 -70 -47 -109t-127 -39q-185 0 -185 218q0 116 48.5 174t137.5 58q67 0 108.5 -32t47.5 -91l-81 -5q-4 27 -23.5 43.5t-51.5 16.5q-56 0 -83 -54q-18 -38 -18 -98q40 55 124 55zM229 -58q41 0 65 21.5t24 58.5t-24 58.5t-65 21.5
t-65.5 -21.5t-24.5 -58.5t24.5 -58.5t65.5 -21.5z" />
    <glyph glyph-name="uni2087" unicode="&#x2087;" horiz-adv-x="359" 
d="M19 315h326v-57q-131 -185 -167 -374h-90q40 185 174 363h-243v68z" />
    <glyph glyph-name="uni2088" unicode="&#x2088;" horiz-adv-x="434" 
d="M290 109q49 -12 78.5 -40.5t29.5 -71.5q0 -59 -52.5 -91t-128.5 -32t-128.5 32t-52.5 91q0 43 29.5 71.5t79.5 40.5q-97 23 -97 101q0 56 48.5 85t120.5 29t120.5 -29.5t48.5 -84.5q0 -77 -96 -101zM217 261q-41 0 -64 -16t-23 -46t23 -46t64 -16q40 0 63 16t23 46
t-23 46t-63 16zM217 -63q45 0 71.5 18t26.5 51t-26.5 51t-71.5 18q-46 0 -72.5 -18t-26.5 -51t26.5 -51t72.5 -18z" />
    <glyph glyph-name="uni2089" unicode="&#x2089;" horiz-adv-x="440" 
d="M211 324q185 0 185 -218q0 -117 -48 -174.5t-138 -57.5q-68 0 -109 32t-48 91l82 5q3 -27 22.5 -43.5t52.5 -16.5q60 0 85 60q16 36 16 95q-39 -56 -124 -56q-64 0 -107 35.5t-43 100.5q0 69 47 108t127 39zM211 98q41 0 65 21.5t24 57.5t-24 57.5t-65 21.5t-65.5 -21.5
t-24.5 -57.5t24.5 -57.5t65.5 -21.5z" />
    <glyph glyph-name="Euro" unicode="&#x20ac;" horiz-adv-x="655" 
d="M524 215l101 -4q-18 -102 -85.5 -162.5t-177.5 -60.5q-119 0 -194 73t-95 197h-64v54h59q-1 10 -1 32t1 32h-56v54h61q19 124 92 197t189 73q103 0 171.5 -52.5t89.5 -145.5l-102 -6q-16 53 -57.5 84.5t-97.5 31.5q-70 0 -114.5 -50t-60.5 -132h253v-54h-260
q0 -5 -0.5 -15.5t-0.5 -16.5t0.5 -16.5t0.5 -15.5h256v-54h-248q16 -83 63 -132.5t118 -49.5q63 0 104.5 38.5t54.5 100.5z" />
    <glyph glyph-name="uni20B4" unicode="&#x20b4;" horiz-adv-x="562" 
d="M438 387q-23 -17 -59 -36l-63 -31h222v-44h-309q-69 -42 -69 -104q0 -51 34.5 -75t86.5 -24q58 0 97.5 28.5t43.5 88.5l100 -4q-14 -198 -240 -198q-105 0 -167.5 46.5t-62.5 131.5q0 64 38 110h-60v44h112q25 17 51 29l79 38h-242v45h323q45 35 45 89q0 44 -27.5 69
t-77.5 25q-43 0 -77.5 -21.5t-38.5 -73.5l-101 6q5 49 26.5 85t54.5 54.5t66.5 26.5t70.5 8q92 0 152 -44t60 -130q0 -55 -26 -94h58v-45h-100z" />
    <glyph glyph-name="uni20BD" unicode="&#x20bd;" horiz-adv-x="620" 
d="M354 281h-154v-68h215v-64h-215v-149h-108v149h-66v64h66v68h-66v79h66v328h108h151q99 0 165 -51.5t66 -156.5t-63 -152t-165 -47zM200 600v-240h139q62 0 98.5 30t36.5 90t-36.5 90t-98.5 30h-139z" />
    <glyph glyph-name="uni2116" unicode="&#x2116;" horiz-adv-x="1185" 
d="M948 334q-85 0 -135 51t-50 138t50 138t135 51q86 0 136 -51t50 -138t-50 -138t-136 -51zM549 68v632h107v-700h-188l-279 632v-632h-107v700h188zM948 640q-44 0 -69.5 -32t-25.5 -85t25.5 -85.5t69.5 -32.5t69.5 32.5t25.5 85.5t-25.5 85t-69.5 32zM777 203v71h343v-71
h-343z" />
    <glyph glyph-name="trademark" unicode="&#x2122;" horiz-adv-x="809" 
d="M16 652v48h288v-48h-114v-321h-59v321h-115zM656 700h102v-369h-58v330l-100 -330h-82l-99 327v-327h-58v369h103l96 -334z" />
    <glyph glyph-name="oneeighth" unicode="&#x215b;" horiz-adv-x="793" 
d="M105 340v274l-78 -48v76l92 58h58v-360h-72zM531 700h79l-480 -700h-79zM666 185q44 -9 69.5 -33t25.5 -60q0 -50 -45.5 -77t-112.5 -27t-112 26.5t-45 77.5q0 36 25.5 60t69.5 33q-85 20 -85 85q0 47 42 71.5t105 24.5q64 0 106 -24.5t42 -71.5q0 -65 -85 -85zM527 259
q0 -23 21 -36.5t55 -13.5q35 0 56 13t21 37q0 25 -21 38.5t-56 13.5q-34 0 -55 -13.5t-21 -38.5zM603 43q39 0 63 15t24 43q0 27 -24 42t-63 15q-38 0 -62 -15.5t-24 -41.5q0 -28 23.5 -43t62.5 -15z" />
    <glyph glyph-name="threeeighths" unicode="&#x215c;" horiz-adv-x="892" 
d="M320 449q0 -60 -44 -90.5t-112 -30.5q-64 0 -104.5 28.5t-47.5 85.5l72 5q7 -61 80 -61q37 0 60 16.5t23 46.5q0 27 -20.5 43.5t-60.5 16.5q-24 0 -63 -7v50l111 90h-182v58h277v-53l-124 -88q59 -1 95 -25q40 -28 40 -85zM630 700h79l-480 -700h-79zM765 185
q44 -9 69.5 -33t25.5 -60q0 -50 -45.5 -77t-112.5 -27t-112 26.5t-45 77.5q0 36 25.5 60t69.5 33q-85 20 -85 85q0 47 42 71.5t105 24.5q64 0 106 -24.5t42 -71.5q0 -65 -85 -85zM626 259q0 -24 21 -37t55 -13q35 0 56 13t21 37q0 25 -21 38.5t-56 13.5q-76 0 -76 -52z
M702 43q39 0 63 15t24 43q0 27 -24 42t-63 15q-38 0 -62 -15.5t-24 -41.5q0 -28 23.5 -43t62.5 -15z" />
    <glyph glyph-name="fiveeighths" unicode="&#x215d;" horiz-adv-x="904" 
d="M332 458q0 -62 -42.5 -95.5t-111.5 -33.5q-62 0 -104.5 27.5t-50.5 79.5l68 5q14 -55 87 -55q38 0 60.5 18.5t22.5 52.5q0 35 -23 52.5t-60 17.5q-58 0 -83 -34l-62 5l17 203h258v-56h-206l-9 -103q39 37 105 37q60 0 97 -31.5t37 -89.5zM642 700h79l-480 -700h-79z
M777 185q43 -9 69 -33t26 -60q0 -50 -45.5 -77t-112.5 -27t-112.5 27t-45.5 77q0 36 26 60t70 33q-85 20 -85 85q0 47 42 71.5t105 24.5t105 -24.5t42 -71.5q0 -66 -84 -85zM638 259q0 -24 21 -37t55 -13q35 0 56 13t21 37q0 25 -21 38.5t-56 13.5q-76 0 -76 -52zM714 43
q39 0 63 15t24 43q0 27 -24 42t-63 15q-38 0 -62 -15.5t-24 -41.5q0 -28 23.5 -43t62.5 -15z" />
    <glyph glyph-name="seveneighths" unicode="&#x215e;" horiz-adv-x="847" 
d="M156 340h-77q35 155 149 301h-210v59h285v-49q-114 -154 -147 -311zM585 700h79l-480 -700h-79zM720 185q44 -9 69.5 -33t25.5 -60q0 -50 -45.5 -77t-112.5 -27t-112 26.5t-45 77.5q0 36 25.5 60t69.5 33q-85 20 -85 85q0 47 42 71.5t105 24.5q64 0 106 -24.5t42 -71.5
q0 -65 -85 -85zM581 259q0 -23 21 -36.5t55 -13.5q35 0 56 13t21 37q0 25 -21 38.5t-56 13.5q-34 0 -55 -13.5t-21 -38.5zM657 43q39 0 63 15t24 43q0 27 -24 42t-63 15q-38 0 -62 -15.5t-24 -41.5q0 -28 23.5 -43t62.5 -15z" />
    <glyph glyph-name="arrowleft" unicode="&#x2190;" horiz-adv-x="771" 
d="M709 397v-82h-489l233 -227h-124l-267 268l267 268h124l-233 -227h489z" />
    <glyph glyph-name="arrowup" unicode="&#x2191;" horiz-adv-x="660" 
d="M598 492v-126l-224 230v-602h-88v602l-224 -230v127l268 267z" />
    <glyph glyph-name="arrowright" unicode="&#x2192;" horiz-adv-x="771" 
d="M442 624l267 -268l-267 -268h-124l233 227h-489v82h489l-233 227h124z" />
    <glyph glyph-name="arrowdown" unicode="&#x2193;" horiz-adv-x="660" 
d="M374 104l224 230v-126l-268 -268l-268 267v127l224 -230v602h88v-602z" />
    <glyph glyph-name="arrowboth" unicode="&#x2194;" horiz-adv-x="1034" 
d="M738 591l234 -235l-234 -235h-123l199 194h-594l199 -194h-123l-234 235l234 235h123l-199 -194h594l-199 194h123z" />
    <glyph glyph-name="arrowupdn" unicode="&#x2195;" horiz-adv-x="588" 
d="M526 444l-192 196v-579l192 197v-125l-235 -235l-229 229v125l185 -190v578l-185 -190v125l229 229l235 -235v-125z" />
    <glyph glyph-name="uni2196" unicode="&#x2196;" horiz-adv-x="636" 
d="M575 150l-60 -60l-365 365l4 -326l-92 89v379h379l88 -85l-320 3z" />
    <glyph glyph-name="uni2197" unicode="&#x2197;" horiz-adv-x="636" 
d="M195 597h380v-379l-92 -89l3 326l-365 -365l-59 60l365 365l-319 -3z" />
    <glyph glyph-name="uni2198" unicode="&#x2198;" horiz-adv-x="636" 
d="M483 573l92 -88v-379h-380l-87 85l319 -3l-365 365l59 60l365 -365z" />
    <glyph glyph-name="uni2199" unicode="&#x2199;" horiz-adv-x="636" 
d="M575 553l-366 -365l320 3l-88 -85h-379v379l92 88l-4 -325l365 365z" />
    <glyph glyph-name="partialdiff" unicode="&#x2202;" horiz-adv-x="569" 
d="M256 756q265 0 265 -397q0 -193 -69 -282t-186 -89q-106 0 -167 64.5t-61 181.5q0 110 62 178t161 68q95 0 152 -69q-13 264 -163 264q-78 0 -138 -71l-56 66q79 86 200 86zM262 72q138 0 151 223q-17 49 -52 75t-80 26q-63 0 -100 -45t-37 -117q0 -79 32.5 -120.5
t85.5 -41.5z" />
    <glyph glyph-name="emptyset" unicode="&#x2205;" horiz-adv-x="577" 
d="M543 521l-73 -73q46 -59 46 -146q0 -104 -63.5 -164.5t-163.5 -60.5q-85 0 -145 44l-74 -74l-36 36l73 73q-46 59 -46 146q0 104 63.5 164.5t164.5 60.5q86 0 145 -44l74 74zM152 302q0 -47 20 -81l199 199q-34 23 -82 23q-63 0 -100 -38t-37 -103zM425 302q0 47 -20 81
l-199 -199q34 -23 83 -23q63 0 99.5 38t36.5 103z" />
    <glyph glyph-name="product" unicode="&#x220f;" horiz-adv-x="645" 
d="M563 700v-792h-104v707h-273v-707h-104v792h481z" />
    <glyph glyph-name="summation" unicode="&#x2211;" horiz-adv-x="508" 
d="M157 -7h327v-85h-449v75l226 338l-214 304v75h428v-85h-304l206 -294z" />
    <glyph glyph-name="minus" unicode="&#x2212;" horiz-adv-x="497" 
d="M55 370h387v-77h-387v77z" />
    <glyph glyph-name="radical" unicode="&#x221a;" horiz-adv-x="584" 
d="M465 712h89l-217 -810h-121l-117 401h-75v77h143l110 -402z" />
    <glyph glyph-name="infinity" unicode="&#x221e;" horiz-adv-x="615" 
d="M449 472q64 0 102 -37.5t38 -109.5q0 -71 -38.5 -109.5t-101.5 -38.5q-43 0 -75.5 20t-65.5 71q-33 -51 -66 -71t-75 -20q-63 0 -101.5 38.5t-38.5 109.5q0 72 38 109.5t102 37.5q43 0 75.5 -20t65.5 -70q33 50 65.5 70t75.5 20zM173 241q54 0 102 84q-48 84 -102 84
q-32 0 -52.5 -21.5t-20.5 -62.5q0 -40 20.5 -62t52.5 -22zM443 241q31 0 51.5 22t20.5 62q0 41 -20.5 62.5t-51.5 21.5q-55 0 -103 -84q48 -84 103 -84z" />
    <glyph glyph-name="integral" unicode="&#x222b;" horiz-adv-x="403" 
d="M279 731q23 0 56 -5v-72q-12 3 -37 3q-27 0 -40.5 -16.5t-13.5 -56.5v-546q0 -136 -126 -136q-24 0 -56 5v72q12 -3 37 -3q27 0 40.5 16.5t13.5 56.5v546q0 136 126 136z" />
    <glyph glyph-name="approxequal" unicode="&#x2248;" horiz-adv-x="536" 
d="M180 410q-26 0 -39.5 -19.5t-13.5 -50.5h-60q0 59 25.5 97.5t81.5 38.5q38 0 71 -21t61 -42t51 -21q25 0 38.5 20t13.5 50h60q0 -58 -26 -96.5t-81 -38.5q-38 0 -71 20.5t-60.5 41.5t-50.5 21zM357 228q25 0 38.5 19.5t13.5 50.5h60q0 -59 -26 -97t-81 -38
q-38 0 -71 20.5t-60.5 41.5t-50.5 21q-26 0 -39.5 -19.5t-13.5 -50.5h-60q0 59 25.5 97t81.5 38q30 0 57.5 -13t45 -28.5t39.5 -28.5t41 -13z" />
    <glyph glyph-name="notequal" unicode="&#x2260;" horiz-adv-x="513" 
d="M450 374h-141l-42 -98h183v-73h-214l-38 -87h-65l37 87h-107v73h139l42 98h-181v73h212l38 87h65l-37 -87h109v-73z" />
    <glyph glyph-name="lessequal" unicode="&#x2264;" horiz-adv-x="495" 
d="M422 571v-88l-280 -106l280 -81v-88l-365 119v94zM57 89v73h365v-73h-365z" />
    <glyph glyph-name="greaterequal" unicode="&#x2265;" horiz-adv-x="495" 
d="M73 571l365 -150v-94l-365 -119v88l280 81l-280 106v88zM73 89v73h365v-73h-365z" />
    <glyph glyph-name="uni2460" unicode="&#x2460;" 
d="M403 -12q-158 0 -259 99.5t-101 262.5t101 262.5t259 99.5t259 -99.5t101 -262.5t-101 -262.5t-259 -99.5zM403 35q137 0 223.5 86.5t86.5 228.5t-86.5 228.5t-223.5 86.5t-223.5 -86.5t-86.5 -228.5t86.5 -228.5t223.5 -86.5zM312 414v68l80 46h56v-356h-69v281z" />
    <glyph glyph-name="uni2461" unicode="&#x2461;" 
d="M403 -12q-158 0 -259 99.5t-101 262.5t101 262.5t259 99.5t259 -99.5t101 -262.5t-101 -262.5t-259 -99.5zM403 35q137 0 223.5 86.5t86.5 228.5t-86.5 228.5t-223.5 86.5t-223.5 -86.5t-86.5 -228.5t86.5 -228.5t223.5 -86.5zM274 173v51l114 105q26 24 39 37t23.5 30.5
t10.5 34.5q0 22 -13.5 35t-36.5 13q-55 0 -61 -76l-67 5q5 64 40 95.5t88 31.5q52 0 85.5 -27t33.5 -77q0 -31 -17 -59t-60 -65l-82 -78h169v-56h-266z" />
    <glyph glyph-name="uni2462" unicode="&#x2462;" 
d="M403 -12q-158 0 -259 99.5t-101 262.5t101 262.5t259 99.5t259 -99.5t101 -262.5t-101 -262.5t-259 -99.5zM403 35q137 0 223.5 86.5t86.5 228.5t-86.5 228.5t-223.5 86.5t-223.5 -86.5t-86.5 -228.5t86.5 -228.5t223.5 -86.5zM264 277l67 4q9 -59 70 -59q34 0 53.5 16
t19.5 45q0 27 -18 43.5t-53 16.5q-20 0 -55 -7v48l95 88h-160v56h249v-50l-104 -89q114 -8 114 -106q0 -58 -39.5 -87.5t-101.5 -29.5q-58 0 -94.5 28t-42.5 83z" />
    <glyph glyph-name="uni2463" unicode="&#x2463;" 
d="M403 -12q-158 0 -259 99.5t-101 262.5t101 262.5t259 99.5t259 -99.5t101 -262.5t-101 -262.5t-259 -99.5zM403 35q137 0 223.5 86.5t86.5 228.5t-86.5 228.5t-223.5 86.5t-223.5 -86.5t-86.5 -228.5t86.5 -228.5t223.5 -86.5zM237 250v52l150 226h112v-222h60v-56h-60
v-78h-69v78h-193zM304 306h126v187z" />
    <glyph glyph-name="uni2464" unicode="&#x2464;" 
d="M403 -12q-158 0 -259 99.5t-101 262.5t101 262.5t259 99.5t259 -99.5t101 -262.5t-101 -262.5t-259 -99.5zM403 35q137 0 223.5 86.5t86.5 228.5t-86.5 228.5t-223.5 86.5t-223.5 -86.5t-86.5 -228.5t86.5 -228.5t223.5 -86.5zM264 269l67 5q12 -52 74 -52q32 0 51.5 18
t19.5 51t-20 50.5t-52 17.5q-47 0 -69 -34l-62 6l16 197h235v-56h-183l-9 -99q36 34 94 34q54 0 86.5 -30t32.5 -86q0 -60 -38.5 -92.5t-101.5 -32.5q-56 0 -94.5 26.5t-46.5 76.5z" />
    <glyph glyph-name="uni2465" unicode="&#x2465;" 
d="M403 -12q-158 0 -259 99.5t-101 262.5t101 262.5t259 99.5t259 -99.5t101 -262.5t-101 -262.5t-259 -99.5zM403 35q137 0 223.5 86.5t86.5 228.5t-86.5 228.5t-223.5 86.5t-223.5 -86.5t-86.5 -228.5t86.5 -228.5t223.5 -86.5zM258 345q0 94 40.5 142t110.5 48
q54 0 88 -27t39 -75l-67 -4q-2 22 -18 36t-42 14q-79 0 -82 -125q29 46 98 46q55 0 89.5 -29t34.5 -84q0 -57 -38 -89t-104 -32q-71 0 -110 44.5t-39 134.5zM335 287q0 -29 20 -47.5t52 -18.5q33 0 53 18.5t20 47.5q0 30 -20 47.5t-53 17.5q-32 0 -52 -17.5t-20 -47.5z" />
    <glyph glyph-name="uni2466" unicode="&#x2466;" 
d="M403 -12q-158 0 -259 99.5t-101 262.5t101 262.5t259 99.5t259 -99.5t101 -262.5t-101 -262.5t-259 -99.5zM403 35q137 0 223.5 86.5t86.5 228.5t-86.5 228.5t-223.5 86.5t-223.5 -86.5t-86.5 -228.5t86.5 -228.5t223.5 -86.5zM275 472v56h263v-47q-103 -153 -134 -309
h-74q33 153 140 300h-195z" />
    <glyph glyph-name="uni2467" unicode="&#x2467;" 
d="M403 -12q-158 0 -259 99.5t-101 262.5t101 262.5t259 99.5t259 -99.5t101 -262.5t-101 -262.5t-259 -99.5zM404 35q137 0 223.5 86.5t86.5 228.5t-86.5 228.5t-223.5 86.5t-223.5 -86.5t-86.5 -228.5t86.5 -228.5t223.5 -86.5zM256 267q0 70 87 92q-77 18 -77 82
q0 46 39 70t98 24t98 -24t39 -70q0 -64 -77 -82q87 -22 87 -92q0 -49 -42.5 -75t-104.5 -26q-63 0 -105 26t-42 75zM333 432q0 -23 19 -36t51 -13t51 13t19 36t-19 36t-51 13t-51 -13t-19 -36zM323 275q0 -26 22.5 -40.5t57.5 -14.5t57.5 14.5t22.5 40.5t-22.5 40t-57.5 14
t-57.5 -14t-22.5 -40z" />
    <glyph glyph-name="uni2468" unicode="&#x2468;" 
d="M403 -12q-158 0 -259 99.5t-101 262.5t101 262.5t259 99.5t259 -99.5t101 -262.5t-101 -262.5t-259 -99.5zM405 35q137 0 223.5 86.5t86.5 228.5t-86.5 228.5t-223.5 86.5t-223.5 -86.5t-86.5 -228.5t86.5 -228.5t223.5 -86.5zM257 414q0 56 38.5 88.5t101.5 32.5
q152 0 152 -180q0 -94 -40 -141.5t-111 -47.5q-55 0 -88.5 26.5t-38.5 74.5l66 4q3 -22 19 -36t42 -14q78 0 82 129q-29 -47 -99 -47q-54 0 -89 29t-35 82zM327 414q0 -28 20 -45.5t52 -17.5q33 0 53 17.5t20 45.5q0 29 -20 47t-53 18q-32 0 -52 -18t-20 -47z" />
    <glyph glyph-name="uni24EA" unicode="&#x24ea;" 
d="M403 -12q-158 0 -259 99.5t-101 262.5t101 262.5t259 99.5t259 -99.5t101 -262.5t-101 -262.5t-259 -99.5zM403 35q137 0 223.5 86.5t86.5 228.5t-86.5 228.5t-223.5 86.5t-223.5 -86.5t-86.5 -228.5t86.5 -228.5t223.5 -86.5zM254 350q0 86 39 135.5t110 49.5t110 -49.5
t39 -135.5t-39 -135t-110 -49t-110 49t-39 135zM323 350q0 -62 21.5 -95t58.5 -33t58.5 33t21.5 95t-21.5 95.5t-58.5 33.5t-58.5 -33.5t-21.5 -95.5z" />
    <glyph glyph-name="uni24FF" unicode="&#x24ff;" 
d="M403 -12q-158 0 -259 99.5t-101 262.5t101 262.5t259 99.5t259 -99.5t101 -262.5t-101 -262.5t-259 -99.5zM254 350q0 -86 39 -135t110 -49t110 49t39 135t-39 135.5t-110 49.5t-110 -49.5t-39 -135.5zM323 350q0 62 21.5 95.5t58.5 33.5t58.5 -33.5t21.5 -95.5
t-21.5 -95t-58.5 -33t-58.5 33t-21.5 95z" />
    <glyph glyph-name="lozenge" unicode="&#x25ca;" horiz-adv-x="502" 
d="M306 700l162 -350l-162 -350h-110l-162 350l162 350h110zM251 61l129 289l-129 289l-128 -289z" />
    <glyph glyph-name="uni2776" unicode="&#x2776;" 
d="M403 -12q-158 0 -259 99.5t-101 262.5t101 262.5t259 99.5t259 -99.5t101 -262.5t-101 -262.5t-259 -99.5zM312 414l67 39v-281h69v356h-56l-80 -46v-68z" />
    <glyph glyph-name="uni2777" unicode="&#x2777;" 
d="M403 -12q-158 0 -259 99.5t-101 262.5t101 262.5t259 99.5t259 -99.5t101 -262.5t-101 -262.5t-259 -99.5zM274 173h266v56h-169l82 78q43 37 60 65t17 59q0 50 -33.5 77t-85.5 27q-53 0 -88 -31.5t-40 -95.5l67 -5q6 76 61 76q23 0 36.5 -13t13.5 -35q0 -24 -17 -45.5
t-56 -56.5l-114 -105v-51z" />
    <glyph glyph-name="uni2778" unicode="&#x2778;" 
d="M403 -12q-158 0 -259 99.5t-101 262.5t101 262.5t259 99.5t259 -99.5t101 -262.5t-101 -262.5t-259 -99.5zM264 277q6 -55 42.5 -83t94.5 -28q62 0 101.5 29.5t39.5 87.5q0 98 -114 106l104 89v50h-249v-56h160l-95 -88v-48q35 7 55 7q35 0 53 -16.5t18 -43.5
q0 -29 -19.5 -45t-53.5 -16q-61 0 -70 59z" />
    <glyph glyph-name="uni2779" unicode="&#x2779;" 
d="M403 -12q-158 0 -259 99.5t-101 262.5t101 262.5t259 99.5t259 -99.5t101 -262.5t-101 -262.5t-259 -99.5zM237 250h193v-78h69v78h60v56h-60v222h-112l-150 -226v-52zM304 306l126 187v-187h-126z" />
    <glyph glyph-name="uni277A" unicode="&#x277a;" 
d="M403 -12q-158 0 -259 99.5t-101 262.5t101 262.5t259 99.5t259 -99.5t101 -262.5t-101 -262.5t-259 -99.5zM264 269q8 -50 46.5 -76.5t94.5 -26.5q63 0 101.5 32.5t38.5 92.5q0 56 -32.5 86t-86.5 30q-58 0 -94 -34l9 99h183v56h-235l-16 -197l62 -6q22 34 69 34
q32 0 52 -17.5t20 -50.5t-19.5 -51t-51.5 -18q-62 0 -74 52z" />
    <glyph glyph-name="uni277B" unicode="&#x277b;" 
d="M403 -12q-158 0 -259 99.5t-101 262.5t101 262.5t259 99.5t259 -99.5t101 -262.5t-101 -262.5t-259 -99.5zM258 345q0 -90 39 -134.5t110 -44.5q66 0 104 32t38 89q0 55 -34.5 84t-89.5 29q-69 0 -98 -46q3 125 82 125q26 0 42 -14t18 -36l67 4q-5 48 -39 75t-88 27
q-70 0 -110.5 -48t-40.5 -142zM335 287q0 30 20 47.5t52 17.5q33 0 53 -17.5t20 -47.5q0 -29 -20 -47.5t-53 -18.5q-32 0 -52 18.5t-20 47.5z" />
    <glyph glyph-name="uni277C" unicode="&#x277c;" 
d="M403 -12q-158 0 -259 99.5t-101 262.5t101 262.5t259 99.5t259 -99.5t101 -262.5t-101 -262.5t-259 -99.5zM275 472h195q-107 -147 -140 -300h74q31 156 134 309v47h-263v-56z" />
    <glyph glyph-name="uni277D" unicode="&#x277d;" 
d="M403 -12q-158 0 -259 99.5t-101 262.5t101 262.5t259 99.5t259 -99.5t101 -262.5t-101 -262.5t-259 -99.5zM256 267q0 -49 42 -75t105 -26q62 0 104.5 26t42.5 75q0 70 -87 92q77 18 77 82q0 46 -39 70t-98 24t-98 -24t-39 -70q0 -64 77 -82q-87 -22 -87 -92zM333 432
q0 23 19 36t51 13t51 -13t19 -36t-19 -36t-51 -13t-51 13t-19 36zM323 275q0 25 22.5 39.5t57.5 14.5t57.5 -14.5t22.5 -39.5q0 -26 -22.5 -40.5t-57.5 -14.5t-57.5 14.5t-22.5 40.5z" />
    <glyph glyph-name="uni277E" unicode="&#x277e;" 
d="M403 -12q-158 0 -259 99.5t-101 262.5t101 262.5t259 99.5t259 -99.5t101 -262.5t-101 -262.5t-259 -99.5zM257 414q0 -53 35 -82t89 -29q70 0 99 47q-4 -129 -82 -129q-26 0 -42 14t-19 36l-66 -4q5 -48 38.5 -74.5t88.5 -26.5q71 0 111 47.5t40 141.5q0 180 -152 180
q-63 0 -101.5 -32.5t-38.5 -88.5zM327 414q0 29 20 47t52 18q33 0 53 -18t20 -47q0 -28 -20 -45.5t-53 -17.5q-32 0 -52 17.5t-20 45.5z" />
    <glyph glyph-name="i.loclTRK" horiz-adv-x="245" 
d="M66 605v119h113v-119h-113zM69 0v524h107v-524h-107z" />
    <glyph glyph-name="zero.osf" horiz-adv-x="618" 
d="M44 283q0 136 70.5 214.5t194.5 78.5t194.5 -78.5t70.5 -214.5q0 -137 -70.5 -215t-194.5 -78t-194.5 78t-70.5 215zM150 283q0 -98 42.5 -152t116.5 -54t116.5 54t42.5 152t-42.5 152t-116.5 54t-116.5 -54t-42.5 -152z" />
    <glyph glyph-name="one.osf" horiz-adv-x="501" 
d="M327 87h149v-87h-428v87h173v364l-149 -84v104l170 95h85v-479z" />
    <glyph glyph-name="two.osf" horiz-adv-x="535" 
d="M172 87h339v-87h-492v79l238 177q36 28 50.5 40t38 34.5t32.5 42t9 39.5q0 37 -30.5 57t-82.5 20q-123 0 -137 -122l-102 8q9 101 74 151t165 50q97 0 158 -42t61 -119q0 -52 -33.5 -97t-115.5 -103z" />
    <glyph glyph-name="three.osf" horiz-adv-x="562" 
d="M464 245q64 -54 64 -153q0 -108 -72 -165.5t-185 -57.5q-106 0 -173.5 52.5t-77.5 155.5l104 8q14 -128 147 -128q68 0 108.5 35t40.5 100q0 59 -37 94t-109 35q-42 0 -103 -11v75l199 193h-316v88h455v-79l-214 -193q111 -2 169 -49z" />
    <glyph glyph-name="four.osf" horiz-adv-x="610" 
d="M476 105h106v-88h-106v-138h-108v138h-345v81l278 468h175v-461zM129 105h239v404z" />
    <glyph glyph-name="five.osf" horiz-adv-x="571" 
d="M313 337q99 0 161 -61t62 -169q0 -113 -70.5 -175.5t-184.5 -62.5q-102 0 -172.5 50.5t-83.5 142.5l104 8q11 -55 53 -84t99 -29q64 0 105.5 38.5t41.5 111.5t-41.5 110.5t-105.5 37.5q-97 0 -144 -72l-95 8l29 375h426v-88h-345l-16 -211q67 70 177 70z" />
    <glyph glyph-name="six.osf" horiz-adv-x="608" 
d="M343 456q100 0 164 -62t64 -170q0 -110 -69 -173t-185 -63q-269 0 -269 349q0 185 71 280t200 95q98 0 158 -52t69 -143l-104 -7q-5 51 -37.5 83t-85.5 32q-92 0 -135 -102q-27 -67 -28 -171q27 50 76 77t111 27zM317 75q66 0 105.5 40.5t39.5 108.5q0 67 -39.5 107.5
t-105.5 40.5t-105.5 -40.5t-39.5 -107.5q0 -68 39.5 -108.5t105.5 -40.5z" />
    <glyph glyph-name="seven.osf" horiz-adv-x="546" 
d="M30 566h490v-74q-204 -302 -269 -613h-110q67 307 274 599h-385v88z" />
    <glyph glyph-name="eight.osf" horiz-adv-x="602" 
d="M402 365q75 -19 118.5 -65.5t43.5 -115.5q0 -93 -75.5 -144.5t-187.5 -51.5q-113 0 -188 51.5t-75 144.5q0 70 44 116t120 65q-69 17 -108 59t-39 106q0 88 70.5 135t175.5 47t175 -47t70 -135q0 -128 -144 -165zM160 516q0 -53 38.5 -82.5t102.5 -29.5t102 29t38 83
q0 53 -38 82t-102 29t-102.5 -29t-38.5 -82zM301 73q69 0 113.5 32.5t44.5 91.5q0 58 -44.5 90.5t-113.5 32.5t-113.5 -32.5t-44.5 -90.5q0 -59 44.5 -91.5t113.5 -32.5z" />
    <glyph glyph-name="nine.osf" horiz-adv-x="608" 
d="M289 576q271 0 271 -341q0 -182 -70 -273.5t-200 -91.5q-99 0 -159 50.5t-69 139.5l104 7q5 -49 37.5 -79.5t86.5 -30.5q94 0 134 99q27 64 27 169q-27 -49 -76 -74.5t-111 -25.5q-99 0 -163 60t-64 164q0 105 69 166t183 61zM291 209q66 0 105.5 38.5t39.5 101.5
t-39.5 101.5t-105.5 38.5t-106 -38.5t-40 -101.5t40 -101.5t106 -38.5z" />
    <glyph glyph-name="zero.subs" horiz-adv-x="455" 
d="M44 99q0 105 47.5 165t135.5 60t136 -60t48 -165q0 -106 -48 -165.5t-136 -59.5t-135.5 59.5t-47.5 165.5zM128 99q0 -76 26.5 -116.5t72.5 -40.5t72.5 40.5t26.5 116.5q0 75 -26 115t-73 40q-46 0 -72.5 -40t-26.5 -115z" />
    <glyph glyph-name="one.subs" horiz-adv-x="287" 
d="M132 315h69v-431h-85v334l-81 -64v85z" />
    <glyph glyph-name="two.subs" horiz-adv-x="371" 
d="M130 -50h216v-69h-329v63l142 129q35 31 49 45t28 36.5t14 43.5q0 27 -17.5 42t-45.5 15q-69 0 -77 -92l-82 6q6 78 49 116.5t110 38.5q64 0 105.5 -32.5t41.5 -93.5q0 -38 -21 -72t-75 -81z" />
    <glyph glyph-name="three.subs" horiz-adv-x="388" 
d="M301 124q55 -32 55 -105q0 -70 -49 -106t-125 -36q-72 0 -117.5 33.5t-52.5 100.5l82 5q10 -71 88 -71q41 0 65 19.5t24 54.5q0 32 -22 51.5t-66 19.5q-32 0 -68 -7v57l120 107h-200v68h308v-61l-136 -107q56 -2 94 -23z" />
    <glyph glyph-name="four.subs" horiz-adv-x="440" 
d="M343 46h73v-68h-73v-94h-85v94h-237v63l184 274h138v-269zM103 46h155v227z" />
    <glyph glyph-name="five.subs" horiz-adv-x="410" 
d="M228 164q67 0 107.5 -34.5t40.5 -101.5q0 -73 -48 -112t-125 -39q-69 0 -117 32t-57 92l82 6q7 -31 32.5 -46.5t59.5 -15.5q40 0 64.5 22t24.5 61q0 40 -25 61t-65 21q-59 0 -86 -40l-75 6l19 239h290v-68h-227l-10 -121q41 38 115 38z" />
    <glyph glyph-name="six.subs" horiz-adv-x="440" 
d="M253 159q65 0 107.5 -35.5t42.5 -101.5q0 -70 -47 -109t-127 -39q-185 0 -185 218q0 116 48.5 174t137.5 58q67 0 108.5 -32t47.5 -91l-81 -5q-4 27 -23.5 43.5t-51.5 16.5q-56 0 -83 -54q-18 -38 -18 -98q40 55 124 55zM229 -58q41 0 65 21.5t24 58.5t-24 58.5t-65 21.5
t-65.5 -21.5t-24.5 -58.5t24.5 -58.5t65.5 -21.5z" />
    <glyph glyph-name="seven.subs" horiz-adv-x="359" 
d="M19 315h326v-57q-131 -185 -167 -374h-90q40 185 174 363h-243v68z" />
    <glyph glyph-name="eight.subs" horiz-adv-x="434" 
d="M290 109q49 -12 78.5 -40.5t29.5 -71.5q0 -59 -52.5 -91t-128.5 -32t-128.5 32t-52.5 91q0 43 29.5 71.5t79.5 40.5q-97 23 -97 101q0 56 48.5 85t120.5 29t120.5 -29.5t48.5 -84.5q0 -77 -96 -101zM217 261q-41 0 -64 -16t-23 -46t23 -46t64 -16q40 0 63 16t23 46
t-23 46t-63 16zM217 -63q45 0 71.5 18t26.5 51t-26.5 51t-71.5 18q-46 0 -72.5 -18t-26.5 -51t26.5 -51t72.5 -18z" />
    <glyph glyph-name="nine.subs" horiz-adv-x="440" 
d="M211 324q185 0 185 -218q0 -117 -48 -174.5t-138 -57.5q-68 0 -109 32t-48 91l82 5q3 -27 22.5 -43.5t52.5 -16.5q60 0 85 60q16 36 16 95q-39 -56 -124 -56q-64 0 -107 35.5t-43 100.5q0 69 47 108t127 39zM211 98q41 0 65 21.5t24 57.5t-24 57.5t-65 21.5t-65.5 -21.5
t-24.5 -57.5t24.5 -57.5t65.5 -21.5z" />
    <glyph glyph-name="zero.tf" horiz-adv-x="630" 
d="M62 350q0 170 65.5 266t187.5 96t187.5 -96t65.5 -266t-65.5 -266t-187.5 -96t-187.5 96t-65.5 266zM166 350q0 -131 39 -204t110 -73t110 73t39 204t-39 203.5t-110 72.5t-110 -72.5t-39 -203.5z" />
    <glyph glyph-name="one.tf" horiz-adv-x="630" 
d="M397 88h174v-88h-488v88h206v490l-183 -126v107l204 141h87v-612z" />
    <glyph glyph-name="two.tf" horiz-adv-x="630" 
d="M210 85h337v-85h-477v78l219 228q52 53 74 78t42.5 63t20.5 74q0 51 -30 78.5t-79 27.5q-118 0 -131 -166l-100 7q8 122 71 183t160 61q94 0 153.5 -49.5t59.5 -141.5q0 -63 -32.5 -118t-112.5 -136z" />
    <glyph glyph-name="three.tf" horiz-adv-x="630" 
d="M477 380q73 -54 73 -165q0 -110 -71 -168.5t-181 -58.5q-103 0 -169 53.5t-75 158.5l104 8q14 -132 140 -132q65 0 104.5 36.5t39.5 102.5q0 61 -35.5 97.5t-105.5 36.5q-43 0 -100 -12v75l191 200h-306v88h445v-79l-206 -199q96 0 152 -42z" />
    <glyph glyph-name="four.tf" horiz-adv-x="630" 
d="M484 245h103v-84h-103v-161h-104v161h-337v77l268 462h173v-455zM146 245h234v402z" />
    <glyph glyph-name="five.tf" horiz-adv-x="630" 
d="M349 465q97 0 157 -62.5t60 -171.5q0 -115 -69 -179t-180 -64q-99 0 -168 51.5t-82 145.5l105 8q10 -57 50 -87t95 -30q62 0 101.5 40t39.5 115t-40 113.5t-101 38.5q-94 0 -138 -74l-95 8l28 383h416v-88h-335l-16 -217q65 70 172 70z" />
    <glyph glyph-name="six.tf" horiz-adv-x="630" 
d="M357 456q97 0 159.5 -62t62.5 -170q0 -110 -66.5 -173t-179.5 -63q-261 0 -261 349q0 185 68.5 280t194.5 95q94 0 152.5 -52t66.5 -143l-100 -7q-5 53 -36 85.5t-83 32.5q-85 0 -126 -90q-32 -67 -33 -186q26 51 73.5 77.5t107.5 26.5zM332 72q64 0 103 41.5t39 110.5
t-38.5 110t-103.5 41q-64 0 -102.5 -41t-38.5 -110t38.5 -110.5t102.5 -41.5z" />
    <glyph glyph-name="seven.tf" horiz-adv-x="630" 
d="M74 700h478v-75q-196 -308 -258 -625h-115q62 305 268 612h-373v88z" />
    <glyph glyph-name="eight.tf" horiz-adv-x="630" 
d="M410 365q74 -19 117 -65.5t43 -115.5q0 -93 -73 -144.5t-182 -51.5t-182 51.5t-73 144.5q0 69 43 115.5t116 65.5q-68 17 -105 58.5t-37 106.5q0 88 67.5 135t170.5 47q102 0 170 -47t68 -135q0 -129 -143 -165zM178 517q0 -55 37.5 -85t99.5 -30t99.5 30t37.5 85
q0 54 -37.5 83.5t-99.5 29.5t-99.5 -29.5t-37.5 -83.5zM315 70q68 0 111 33t43 93t-43 93t-111 33t-111 -33t-43 -93t43 -93t111 -33z" />
    <glyph glyph-name="nine.tf" horiz-adv-x="630" 
d="M296 712q262 0 262 -349q0 -186 -67.5 -280.5t-193.5 -94.5q-96 0 -154 51.5t-68 142.5l101 8q5 -53 36.5 -85.5t84.5 -32.5q86 0 127 95q30 71 30 187q-26 -50 -74 -77t-108 -27q-96 0 -158.5 62t-62.5 167q0 108 67 170.5t178 62.5zM298 331q64 0 102.5 40.5
t38.5 107.5t-38.5 108t-102.5 41t-103 -41t-39 -108t39 -107.5t103 -40.5z" />
    <glyph glyph-name="zero.tosf" horiz-adv-x="630" 
d="M61 283q0 137 67.5 215t186.5 78t186.5 -78t67.5 -215t-67.5 -215t-186.5 -78t-186.5 78t-67.5 215zM164 283q0 -99 40 -154t111 -55t111 55t40 154t-40 154t-111 55t-111 -55t-40 -154z" />
    <glyph glyph-name="one.tosf" horiz-adv-x="630" 
d="M398 87h175v-87h-482v87h201v366l-173 -86v104l194 95h85v-479z" />
    <glyph glyph-name="two.tosf" horiz-adv-x="630" 
d="M226 87h317v-87h-469v79l223 177q77 64 98 91q26 34 26 65q0 37 -28 57t-76 20q-112 0 -125 -122l-102 8q8 101 69.5 151t157.5 50q92 0 151 -42t59 -119q0 -52 -31.5 -96.5t-109.5 -104.5z" />
    <glyph glyph-name="three.tosf" horiz-adv-x="630" 
d="M474 251q72 -54 72 -161t-72 -164t-184 -57q-107 0 -174.5 52t-77.5 155l105 8q14 -127 147 -127q67 0 107.5 35t40.5 98q0 59 -37 94.5t-109 35.5q-43 0 -102 -12v75l197 195h-315v88h455v-79l-210 -194q100 -2 157 -42z" />
    <glyph glyph-name="four.tosf" horiz-adv-x="630" 
d="M483 114h104v-88h-104v-147h-108v147h-339v81l271 459h176v-452zM142 114h233v389z" />
    <glyph glyph-name="five.tosf" horiz-adv-x="630" 
d="M348 334q96 0 156 -61t60 -167q0 -113 -68.5 -175t-178.5 -62q-99 0 -168 50t-81 142l104 8q10 -55 50 -83.5t95 -28.5q61 0 100 38.5t39 110.5q0 73 -39.5 109.5t-100.5 36.5q-93 0 -136 -71l-96 8l28 377h414v-88h-332l-16 -214q61 70 170 70z" />
    <glyph glyph-name="six.tosf" horiz-adv-x="630" 
d="M356 456q95 0 156.5 -62t61.5 -170q0 -110 -65.5 -173t-177.5 -63q-257 0 -257 349q0 184 67.5 279.5t191.5 95.5q94 0 151.5 -52t65.5 -143l-100 -7q-5 53 -35.5 85.5t-81.5 32.5q-79 0 -120 -85q-32 -66 -35 -190q26 50 72.5 76.5t105.5 26.5zM331 72q63 0 101 41.5
t38 110.5t-38 110t-101 41t-100.5 -41t-37.5 -110t37.5 -110.5t100.5 -41.5z" />
    <glyph glyph-name="seven.tosf" horiz-adv-x="630" 
d="M73 566h468v-74q-192 -304 -253 -613h-110q62 305 258 599h-363v88z" />
    <glyph glyph-name="eight.tosf" horiz-adv-x="630" 
d="M411 365q72 -19 114 -65.5t42 -115.5q0 -93 -72.5 -144.5t-179.5 -51.5t-179.5 51.5t-72.5 144.5q0 69 42.5 115.5t115.5 65.5q-141 36 -141 165q0 88 67 135t168 47t168 -47t67 -135q0 -129 -139 -165zM185 516q0 -54 35 -83t95 -29t95 29t35 83q0 53 -35 82t-95 29
t-95 -29t-35 -82zM315 73q65 0 106 32.5t41 91.5q0 58 -41 90.5t-106 32.5t-106 -32.5t-41 -90.5q0 -59 41 -91.5t106 -32.5z" />
    <glyph glyph-name="nine.tosf" horiz-adv-x="630" 
d="M296 575q260 0 260 -340q0 -181 -67 -273.5t-192 -92.5q-94 0 -151.5 50.5t-67.5 139.5l101 8q5 -51 35.5 -82.5t82.5 -31.5q85 0 125 92q29 70 29 179q-25 -48 -72.5 -74t-106.5 -26q-94 0 -155.5 60.5t-61.5 163.5q0 105 66 166t175 61zM298 205q63 0 101 39t38 104
t-38 104t-101 39t-101 -39t-38 -104t38 -104t101 -39z" />
    <glyph glyph-name="zero.zero" horiz-adv-x="627" 
d="M313 712q128 0 197 -96t69 -266t-69 -266t-197 -96q-127 0 -196 96t-69 266t69 266t196 96zM313 624q-74 0 -115.5 -72t-41.5 -202q0 -81 17 -141l253 349q-41 66 -113 66zM313 76q74 0 116 72t42 202q0 85 -18 145l-254 -350q41 -69 114 -69z" />
    <glyph glyph-name="zero.osf.zero" horiz-adv-x="618" 
d="M309 576q124 0 194.5 -78.5t70.5 -214.5q0 -137 -70.5 -215t-194.5 -78t-194.5 78t-70.5 215q0 136 70.5 214.5t194.5 78.5zM309 489q-74 0 -116.5 -54t-42.5 -152q0 -58 15 -100l257 257q-43 49 -113 49zM309 77q74 0 116.5 54t42.5 152q0 57 -16 103l-258 -258
q43 -51 115 -51z" />
    <glyph glyph-name="zero.tf.zero" horiz-adv-x="630" 
d="M315 712q122 0 187.5 -96t65.5 -266t-65.5 -266t-187.5 -96t-187.5 96t-65.5 266t65.5 266t187.5 96zM315 626q-71 0 -110 -72.5t-39 -203.5q0 -82 15 -140l242 346q-38 70 -108 70zM315 73q71 0 110 73t39 204q0 82 -15 140l-243 -346q40 -71 109 -71z" />
    <glyph glyph-name="zero.tosf.zero" horiz-adv-x="630" 
d="M315 576q119 0 186.5 -78t67.5 -215t-67.5 -215t-186.5 -78t-186.5 78t-67.5 215t67.5 215t186.5 78zM315 492q-71 0 -111 -55t-40 -154q0 -52 13 -98l249 252q-40 55 -111 55zM315 74q71 0 111 55t40 154q0 53 -13 98l-249 -252q40 -55 111 -55z" />
    <glyph glyph-name="zero.dnom" horiz-adv-x="400" 
d="M200 366q77 0 118.5 -50t41.5 -139t-41.5 -139t-118.5 -50t-118.5 50t-41.5 139t41.5 139t118.5 50zM200 47q41 0 64.5 33.5t23.5 96.5t-23.5 96.5t-64.5 33.5t-64.5 -33.5t-23.5 -96.5t23.5 -96.5t64.5 -33.5z" />
    <glyph glyph-name="one.dnom" horiz-adv-x="247" 
d="M119 360h58v-360h-72v274l-78 -48v76z" />
    <glyph glyph-name="two.dnom" horiz-adv-x="329" 
d="M112 59h192v-59h-288v54l125 108q42 34 60.5 56t18.5 47q0 22 -15 35t-41 13q-61 0 -68 -77l-70 6q5 65 43 97.5t95 32.5q56 0 93 -27.5t37 -79.5q0 -32 -19.5 -61t-65.5 -66z" />
    <glyph glyph-name="three.dnom" horiz-adv-x="346" 
d="M280 194q40 -28 40 -85q0 -60 -44 -90.5t-112 -30.5q-64 0 -104.5 28.5t-47.5 85.5l72 5q7 -61 80 -61q37 0 60 16.5t23 46.5q0 27 -20.5 43.5t-60.5 16.5q-24 0 -63 -7v50l111 90h-182v58h277v-53l-124 -88q59 -1 95 -25z" />
    <glyph glyph-name="four.dnom" horiz-adv-x="377" 
d="M293 138h63v-59h-63v-79h-72v79h-204v54l158 227h118v-222zM88 138h133v188z" />
    <glyph glyph-name="five.dnom" horiz-adv-x="358" 
d="M198 237q60 0 97 -31t37 -89q0 -62 -42.5 -95.5t-111.5 -33.5q-62 0 -104.5 27.5t-50.5 78.5l68 5q14 -55 87 -55q38 0 59.5 18t21.5 53t-22 53t-59 18q-56 0 -83 -34l-62 5l17 203h258v-56h-206l-9 -104q37 37 105 37z" />
    <glyph glyph-name="six.dnom" horiz-adv-x="381" 
d="M219 231q59 0 97 -31t38 -87q0 -59 -41 -92t-111 -33q-78 0 -120 46t-42 138q0 95 44 144.5t119 49.5q58 0 94.5 -27t41.5 -77l-70 -5q-3 22 -20 36.5t-46 14.5q-51 0 -75 -47q-14 -29 -16 -77q33 47 107 47zM201 46q36 0 58 18.5t22 48.5t-22 48.5t-58 18.5t-57 -18.5
t-21 -48.5t21 -48.5t57 -18.5z" />
    <glyph glyph-name="seven.dnom" horiz-adv-x="316" 
d="M18 360h285v-49q-114 -154 -147 -311h-77q35 155 149 301h-210v59z" />
    <glyph glyph-name="eight.dnom" horiz-adv-x="379" 
d="M252 185q44 -9 69.5 -33t25.5 -60q0 -51 -45 -77.5t-112 -26.5t-112.5 27t-45.5 77q0 36 25.5 60t69.5 33q-85 20 -85 85q0 47 42 71.5t106 24.5q63 0 105 -24.5t42 -71.5q0 -66 -85 -85zM113 259q0 -24 21 -37t56 -13q34 0 55 13t21 37q0 52 -76 52q-35 0 -56 -13.5
t-21 -38.5zM190 43q39 0 62.5 15t23.5 43q0 26 -24 41.5t-62 15.5q-39 0 -63 -15t-24 -42q0 -28 24 -43t63 -15z" />
    <glyph glyph-name="nine.dnom" horiz-adv-x="381" 
d="M179 366q162 0 162 -184q0 -97 -42.5 -145.5t-119.5 -48.5q-60 0 -96 26.5t-42 77.5l70 5q3 -23 21 -37t47 -14q48 0 71 43q17 29 18 83q-33 -46 -106 -46q-60 0 -97.5 30t-37.5 86q0 58 40.5 91t111.5 33zM179 176q36 0 57.5 18t21.5 47q0 30 -21.5 48.5t-57.5 18.5
t-57.5 -18.5t-21.5 -48.5q0 -29 21.5 -47t57.5 -18z" />
    <glyph glyph-name="zero.numr" horiz-adv-x="400" 
d="M200 712q77 0 118.5 -50t41.5 -139t-41.5 -139t-118.5 -50t-118.5 50t-41.5 139t41.5 139t118.5 50zM200 393q41 0 64.5 33.5t23.5 96.5t-23.5 96.5t-64.5 33.5t-64.5 -33.5t-23.5 -96.5t23.5 -96.5t64.5 -33.5z" />
    <glyph glyph-name="one.numr" horiz-adv-x="247" 
d="M119 700h58v-360h-72v274l-78 -48v76z" />
    <glyph glyph-name="two.numr" horiz-adv-x="329" 
d="M112 399h192v-59h-288v54l125 108q42 34 60.5 56t18.5 47q0 22 -15 35t-41 13q-61 0 -68 -77l-70 6q5 65 43 97.5t95 32.5q56 0 93 -27.5t37 -79.5q0 -32 -19.5 -61t-65.5 -66z" />
    <glyph glyph-name="three.numr" horiz-adv-x="346" 
d="M280 534q40 -28 40 -85q0 -60 -44 -90.5t-112 -30.5q-64 0 -104.5 28.5t-47.5 85.5l72 5q7 -61 80 -61q37 0 60 16.5t23 46.5q0 27 -20.5 43.5t-60.5 16.5q-24 0 -63 -7v50l111 90h-182v58h277v-53l-124 -88q59 -1 95 -25z" />
    <glyph glyph-name="four.numr" horiz-adv-x="377" 
d="M293 478h63v-59h-63v-79h-72v79h-204v54l158 227h118v-222zM88 478h133v188z" />
    <glyph glyph-name="five.numr" horiz-adv-x="358" 
d="M198 579q60 0 97 -31.5t37 -89.5q0 -62 -42.5 -95.5t-111.5 -33.5q-62 0 -104.5 27.5t-50.5 79.5l68 5q14 -55 87 -55q38 0 60.5 18.5t22.5 52.5q0 35 -23 52.5t-60 17.5q-58 0 -83 -34l-62 5l17 203h258v-56h-206l-9 -103q39 37 105 37z" />
    <glyph glyph-name="six.numr" horiz-adv-x="381" 
d="M219 577q59 0 97 -31t38 -87q0 -59 -41 -92t-111 -33q-78 0 -120 46t-42 138q0 95 44 144.5t119 49.5q58 0 94.5 -27t41.5 -77l-70 -5q-3 22 -20 36.5t-46 14.5q-51 0 -75 -47q-14 -29 -16 -77q33 47 107 47zM201 392q36 0 58 18.5t22 48.5t-22 48.5t-58 18.5t-57 -18.5
t-21 -48.5t21 -48.5t57 -18.5z" />
    <glyph glyph-name="seven.numr" horiz-adv-x="316" 
d="M18 700h285v-49q-114 -154 -147 -311h-77q35 155 149 301h-210v59z" />
    <glyph glyph-name="eight.numr" horiz-adv-x="379" 
d="M252 531q44 -9 69.5 -33t25.5 -60q0 -51 -45 -77.5t-112 -26.5t-112.5 27t-45.5 77q0 36 25.5 60t69.5 33q-85 20 -85 85q0 47 42 71.5t106 24.5q63 0 105 -24.5t42 -71.5q0 -66 -85 -85zM113 605q0 -24 21 -37t56 -13q34 0 55 13t21 37q0 52 -76 52q-35 0 -56 -13.5
t-21 -38.5zM190 389q39 0 62.5 15t23.5 43q0 26 -24 41.5t-62 15.5q-39 0 -63 -15t-24 -42q0 -28 24 -43t63 -15z" />
    <glyph glyph-name="nine.numr" horiz-adv-x="381" 
d="M179 712q162 0 162 -184q0 -97 -42.5 -145.5t-119.5 -48.5q-60 0 -96 26.5t-42 77.5l70 5q3 -23 21 -37t47 -14q48 0 71 43q17 29 18 83q-33 -46 -106 -46q-60 0 -97.5 30t-37.5 86q0 58 40.5 91t111.5 33zM179 522q36 0 57.5 18t21.5 47q0 30 -21.5 48.5t-57.5 18.5
t-57.5 -18.5t-21.5 -48.5q0 -29 21.5 -47t57.5 -18z" />
    <glyph glyph-name="zero.sups" horiz-adv-x="455" 
d="M44 549q0 105 47.5 165t135.5 60t136 -60t48 -165q0 -106 -48 -165.5t-136 -59.5t-135.5 59.5t-47.5 165.5zM128 549q0 -76 26.5 -116.5t72.5 -40.5t72.5 40.5t26.5 116.5q0 75 -26 115t-73 40q-46 0 -72.5 -40t-26.5 -115z" />
    <glyph glyph-name="one.sups" horiz-adv-x="287" 
d="M132 764h69v-431h-85v334l-81 -64v85z" />
    <glyph glyph-name="two.sups" horiz-adv-x="371" 
d="M130 400h216v-69h-329v63l142 129q35 31 49 45t28 36.5t14 43.5q0 27 -17.5 42t-45.5 15q-69 0 -77 -92l-82 6q6 78 49 116.5t110 38.5q64 0 105.5 -32.5t41.5 -93.5q0 -38 -21 -72t-75 -81z" />
    <glyph glyph-name="three.sups" horiz-adv-x="388" 
d="M301 573q55 -32 55 -105q0 -70 -49 -106t-125 -36q-72 0 -117.5 33.5t-52.5 100.5l82 5q10 -71 88 -71q41 0 65 19.5t24 54.5q0 32 -22 51.5t-66 19.5q-32 0 -68 -7v57l120 107h-200v68h308v-61l-136 -107q56 -2 94 -23z" />
    <glyph glyph-name="four.sups" horiz-adv-x="440" 
d="M343 495h73v-68h-73v-94h-85v94h-237v63l184 274h138v-269zM103 495h155v227z" />
    <glyph glyph-name="five.sups" horiz-adv-x="410" 
d="M228 613q67 0 107.5 -34.5t40.5 -101.5q0 -73 -48 -112t-125 -39q-69 0 -117 32t-57 92l82 6q7 -31 32.5 -46.5t59.5 -15.5q40 0 64.5 22t24.5 61q0 40 -25 61t-65 21q-59 0 -86 -40l-75 6l19 239h290v-68h-227l-10 -121q41 38 115 38z" />
    <glyph glyph-name="six.sups" horiz-adv-x="440" 
d="M253 609q65 0 107.5 -35.5t42.5 -101.5q0 -70 -47 -109t-127 -39q-185 0 -185 218q0 116 48.5 174t137.5 58q67 0 108.5 -32t47.5 -91l-81 -5q-4 27 -23.5 43.5t-51.5 16.5q-56 0 -83 -54q-18 -38 -18 -98q40 55 124 55zM229 392q41 0 65 21.5t24 58.5t-24 58.5t-65 21.5
t-65.5 -21.5t-24.5 -58.5t24.5 -58.5t65.5 -21.5z" />
    <glyph glyph-name="seven.sups" horiz-adv-x="359" 
d="M19 764h326v-57q-131 -185 -167 -374h-90q40 185 174 363h-243v68z" />
    <glyph glyph-name="eight.sups" horiz-adv-x="434" 
d="M290 559q49 -12 78.5 -40.5t29.5 -71.5q0 -59 -52.5 -91t-128.5 -32t-128.5 32t-52.5 91q0 43 29.5 71.5t79.5 40.5q-97 23 -97 101q0 56 48.5 85t120.5 29t120.5 -29.5t48.5 -84.5q0 -77 -96 -101zM217 711q-41 0 -64 -16t-23 -46t23 -46t64 -16q40 0 63 16t23 46
t-23 46t-63 16zM217 387q45 0 71.5 18t26.5 51t-26.5 51t-71.5 18q-46 0 -72.5 -18t-26.5 -51t26.5 -51t72.5 -18z" />
    <glyph glyph-name="nine.sups" horiz-adv-x="440" 
d="M211 774q185 0 185 -218q0 -117 -48 -174.5t-138 -57.5q-68 0 -109 32t-48 91l82 5q3 -27 22.5 -43.5t52.5 -16.5q60 0 85 60q16 36 16 95q-39 -56 -124 -56q-64 0 -107 35.5t-43 100.5q0 69 47 108t127 39zM211 548q41 0 65 21.5t24 57.5t-24 57.5t-65 21.5t-65.5 -21.5
t-24.5 -57.5t24.5 -57.5t65.5 -21.5z" />
    <glyph glyph-name="exclamdown.case" horiz-adv-x="291" 
d="M85 700h121v-130h-121v130zM189 485l12 -485h-112l12 485h88z" />
    <glyph glyph-name="questiondown.case" horiz-adv-x="513" 
d="M333 700v-130h-121v130h121zM250 -12q-95 0 -156 46t-61 138q0 59 27.5 102t88.5 88q43 31 57.5 51.5t14.5 56.5v12h103v-16q0 -57 -18 -88.5t-65 -64.5q-33 -24 -51 -40.5t-34 -43t-16 -56.5q0 -48 30 -72t80 -24q63 0 99.5 38t43.5 113l101 -7q-9 -116 -74.5 -174.5
t-169.5 -58.5z" />
    <glyph glyph-name="braceleft.case" horiz-adv-x="337" 
d="M221 488q0 -125 -107 -141v-4q107 -18 107 -141v-118q0 -53 20.5 -76.5t62.5 -23.5h8v-73h-12q-84 0 -127 37.5t-43 129.5v111q0 119 -87 119h-9v73h9q87 0 87 119v111q0 92 43 129.5t127 37.5h12v-73h-8q-42 0 -62.5 -23.5t-20.5 -76.5v-117z" />
    <glyph glyph-name="braceright.case" horiz-adv-x="337" 
d="M294 381h8v-73h-8q-87 0 -87 -119v-111q0 -92 -43 -129.5t-127 -37.5h-12v73h8q42 0 62.5 23.5t20.5 76.5v118q0 123 107 141v4q-107 18 -107 141v117q0 53 -20.5 76.5t-62.5 23.5h-8v73h12q84 0 127 -37.5t43 -129.5v-111q0 -119 87 -119z" />
    <glyph glyph-name="bracketleft.case" horiz-adv-x="309" 
d="M284 695h-101v-700h101v-84h-198v867h198v-83z" />
    <glyph glyph-name="bracketright.case" horiz-adv-x="309" 
d="M223 778v-867h-198v84h102v700h-102v83h198z" />
    <glyph glyph-name="parenleft.case" horiz-adv-x="328" 
d="M156 347q0 -271 163 -437h-91q-72 64 -122 173.5t-50 263.5t50 263.5t122 173.5h91q-163 -166 -163 -437z" />
    <glyph glyph-name="parenright.case" horiz-adv-x="328" 
d="M101 784q71 -65 121 -174t50 -263t-50 -263t-121 -174h-92q163 166 163 437t-163 437h92z" />
    <glyph glyph-name="emdash.case" horiz-adv-x="682" 
d="M55 397h572v-83h-572v83z" />
    <glyph glyph-name="endash.case" horiz-adv-x="553" 
d="M55 397h443v-83h-443v83z" />
    <glyph glyph-name="hyphen.case" horiz-adv-x="374" 
d="M55 397h264v-83h-264v83z" />
    <glyph glyph-name="guillemotleft.case" horiz-adv-x="480" 
d="M257 529l-144 -179l144 -179h-104l-124 156v46l124 156h104zM439 529l-144 -179l144 -179h-104l-124 156v46l124 156h104z" />
    <glyph glyph-name="guillemotright.case" horiz-adv-x="480" 
d="M145 529l124 -156v-46l-124 -156h-104l145 179l-145 179h104zM327 529l124 -156v-46l-124 -156h-104l145 179l-145 179h104z" />
    <glyph glyph-name="guilsinglleft.case" horiz-adv-x="298" 
d="M257 529l-144 -179l144 -179h-104l-124 156v46l124 156h104z" />
    <glyph glyph-name="guilsinglright.case" horiz-adv-x="298" 
d="M145 529l124 -156v-46l-124 -156h-104l145 179l-145 179h104z" />
    <glyph glyph-name="arrowup.ss01" 
d="M403 -12q-152 0 -256 100.5t-104 261.5t104 261.5t256 100.5t256 -100.5t104 -261.5t-104 -261.5t-256 -100.5zM230 317l144 141v-307h57v308l145 -142v78l-173 163l-173 -163v-78z" />
    <glyph glyph-name="uni2197.ss01" 
d="M403 -12q-152 0 -256 100.5t-104 261.5t104 261.5t256 100.5t256 -100.5t104 -261.5t-104 -261.5t-256 -100.5zM245 228l37 -37l221 221l-2 -204l55 55v238h-239l-55 -53l204 3z" />
    <glyph glyph-name="arrowright.ss01" 
d="M403 -12q-152 0 -256 100.5t-104 261.5t104 261.5t256 100.5t256 -100.5t104 -261.5t-104 -261.5t-256 -100.5zM211 324h301l-144 -147h77l164 173l-164 173h-77l143 -146h-300v-53z" />
    <glyph glyph-name="uni2198.ss01" 
d="M403 -12q-152 0 -256 100.5t-104 261.5t104 261.5t256 100.5t256 -100.5t104 -261.5t-104 -261.5t-256 -100.5zM245 472l221 -223l-204 3l55 -53h239v238l-55 55l2 -204l-221 221z" />
    <glyph glyph-name="arrowdown.ss01" 
d="M403 -12q-152 0 -256 100.5t-104 261.5t104 261.5t256 100.5t256 -100.5t104 -261.5t-104 -261.5t-256 -100.5zM230 383v-78l173 -163l173 163v78l-145 -142v308h-57v-307z" />
    <glyph glyph-name="uni2199.ss01" 
d="M403 -12q-152 0 -256 100.5t-104 261.5t104 261.5t256 100.5t256 -100.5t104 -261.5t-104 -261.5t-256 -100.5zM561 472l-37 37l-222 -221l2 204l-54 -55v-238h239l55 53l-204 -3z" />
    <glyph glyph-name="arrowleft.ss01" 
d="M403 -12q-152 0 -256 100.5t-104 261.5t104 261.5t256 100.5t256 -100.5t104 -261.5t-104 -261.5t-256 -100.5zM595 324v53h-300l143 146h-77l-164 -173l164 -173h77l-144 147h301z" />
    <glyph glyph-name="uni2196.ss01" 
d="M403 -12q-152 0 -256 100.5t-104 261.5t104 261.5t256 100.5t256 -100.5t104 -261.5t-104 -261.5t-256 -100.5zM561 228l-221 223l204 -3l-55 53h-239v-238l54 -55l-2 204l222 -221z" />
    <glyph glyph-name="arrowboth.ss01" 
d="M403 -12q-152 0 -256 100.5t-104 261.5t104 261.5t256 100.5t256 -100.5t104 -261.5t-104 -261.5t-256 -100.5zM148 350l133 -141h70l-114 116h332l-114 -116h70l133 141l-133 141h-70l114 -116h-332l114 116h-70z" />
    <glyph glyph-name="arrowupdn.ss01" 
d="M403 -12q-152 0 -256 100.5t-104 261.5t104 261.5t256 100.5t256 -100.5t104 -261.5t-104 -261.5t-256 -100.5zM262 228l141 -133l141 134v69l-114 -112v329l114 -112v69l-141 134l-141 -133v-70l114 112v-329l-114 112v-70z" />
    <glyph glyph-name="at.case" horiz-adv-x="866" 
d="M519 547h81v-228q0 -58 17 -85.5t56 -27.5q97 0 97 151q0 138 -95 234.5t-242 96.5q-141 0 -239 -99t-98 -242q0 -154 95 -248t252 -94q117 0 200 46l28 -39q-94 -52 -228 -52q-180 0 -288.5 105t-108.5 282q0 166 111.5 276t275.5 110q170 0 278.5 -106.5t108.5 -266.5
q0 -102 -43.5 -157t-120.5 -55q-97 0 -127 82q-21 -45 -57.5 -68.5t-79.5 -23.5q-70 0 -116 56.5t-46 152.5q0 97 46 153.5t116 56.5q85 0 127 -79v69zM414 203q48 0 76.5 39t28.5 105t-28.5 105.5t-76.5 39.5t-76 -39.5t-28 -105.5t28 -105t76 -39z" />
    <glyph glyph-name="russianfonts" horiz-adv-x="603" 
d="M54 213q0 -65 13 -114q12 -51 32 -80.5t41 -29.5q38 0 85.5 44.5t88.5 121.5q41 78 60 148q2 6 8 31v-288l-34 -23v-23h173v23l-35 23v322l35 24v23h-139q-6 -22 -16 -49q-11 -32 -33 -91q-51 -128 -97 -176q-28 -30 -43 -30q-8 0 -8 40q0 47 17 115q17 65 54 127.5
t77 94.5q37 30 73 39.5t92 9.5h23v6q0 33 -16 72q-17 44 -48 72t-69 28q-66 0 -143 -46q-84 -49 -137.5 -155t-53.5 -259z" />
    </font>
</defs>
</svg>
