<?xml version="1.0" standalone="no"?>
<!DOCTYPE svg PUBLIC "-//W3C//DTD SVG 1.1//EN" "http://www.w3.org/Graphics/SVG/1.1/DTD/svg11.dtd" >
<svg xmlns="http://www.w3.org/2000/svg" xmlns:xlink="http://www.w3.org/1999/xlink" version="1.1">
<metadata>
Created by FontForge 20201107 at Wed Apr 11 17:01:58 2018
 By Unknown
Copyright (c) 2018 by Russian Fonts. All rights reserved.
</metadata>
<defs>
<font id="RFDewi-Thin" horiz-adv-x="816" >
  <font-face 
    font-family="RF Dewi Thin"
    font-weight="250"
    font-stretch="normal"
    units-per-em="1000"
    panose-1="0 0 3 0 0 0 0 0 0 0"
    ascent="800"
    descent="-200"
    x-height="524"
    cap-height="700"
    bbox="-166 -212 1034 920"
    underline-thickness="50"
    underline-position="-200"
    unicode-range="U+0020-277E"
  />
<missing-glyph horiz-adv-x="600" 
 />
    <glyph glyph-name="f_f.liga" unicode="ff" horiz-adv-x="555" 
d="M490 722q-51 0 -68 -23t-17 -89v-86h123v-26h-123v-498h-32v498h-222v-498h-32v498h-97v26h97v80q0 78 23.5 105t81.5 27q18 0 49 -3v-25q-40 2 -45 2q-46 0 -61.5 -23t-15.5 -89v-74h222v92q0 78 24.5 105t88.5 27q23 0 55 -3v-25q-40 2 -51 2z" />
    <glyph glyph-name="f_f_i.liga" unicode="ffi" horiz-adv-x="743" 
d="M373 616q0 78 24 105t83 27q26 0 48 -3v-25q-28 2 -44 2q-47 0 -63 -23t-16 -89v-86h123v-26h-123v-498h-32v498h-222v-498h-32v498h-97v26h97v80q0 78 23.5 105t81.5 27q18 0 49 -3v-25q-40 2 -45 2q-46 0 -61.5 -23t-15.5 -89v-74h222v92zM632 716h34v-92h-34v92z
M633 0v524h32v-524h-32z" />
    <glyph glyph-name="f_i.liga" unicode="fi" horiz-adv-x="489" 
d="M119 616q0 78 24 105t83 27q26 0 48 -3v-25q-28 2 -44 2q-47 0 -63 -23t-16 -89v-86h123v-26h-123v-498h-32v498h-97v26h97v92zM378 716h34v-92h-34v92zM379 0v524h32v-524h-32z" />
    <glyph glyph-name="f_l.liga" unicode="fl" horiz-adv-x="489" 
d="M119 616q0 78 24 105t83 27q26 0 48 -3v-25q-28 2 -44 2q-47 0 -63 -23t-16 -89v-86h123v-26h-123v-498h-32v498h-97v26h97v92zM379 736h32v-736h-32v736z" />
    <glyph glyph-name=".notdef" horiz-adv-x="600" 
 />
    <glyph glyph-name=".null" horiz-adv-x="0" 
 />
    <glyph glyph-name="nonmarkingreturn" horiz-adv-x="333" 
 />
    <glyph glyph-name="space" unicode=" " horiz-adv-x="246" 
 />
    <glyph glyph-name="exclam" unicode="!" horiz-adv-x="250" 
d="M138 173h-26l-7 527h40zM102 0v72h46v-72h-46z" />
    <glyph glyph-name="quotedbl" unicode="&#x22;" horiz-adv-x="255" 
d="M62 493l-4 207h34l-4 -207h-26zM167 493l-4 207h34l-4 -207h-26z" />
    <glyph glyph-name="numbersign" unicode="#" horiz-adv-x="535" 
d="M513 454h-119l-23 -207h114v-26h-117l-25 -223h-34l25 223h-161l-25 -223h-34l25 223h-117v26h120l23 207h-115v26h118l23 208h34l-23 -208h161l23 208h34l-23 -208h116v-26zM337 247l23 207h-161l-23 -207h161z" />
    <glyph glyph-name="dollar" unicode="$" horiz-adv-x="543" 
d="M497 166q0 -85 -56.5 -130.5t-156.5 -47.5v-84h-30v85q-101 5 -156 58.5t-60 146.5l30 2q3 -83 51.5 -129.5t134.5 -51.5v323l-51 17q-142 46 -142 175q0 84 53.5 126.5t139.5 44.5v84h30v-85q85 -6 137 -54t58 -128l-30 -3q-3 68 -48 110.5t-117 48.5v-312l66 -22
q147 -48 147 -174zM216 384l38 -12v303q-73 -2 -117 -39.5t-44 -105.5q0 -106 123 -146zM284 14q80 2 130.5 38.5t50.5 113.5q0 104 -127 145l-54 18v-315z" />
    <glyph glyph-name="percent" unicode="%" horiz-adv-x="713" 
d="M34 545q0 76 38 118.5t104 42.5t104 -42.5t38 -118.5t-38 -119.5t-104 -43.5t-104 43.5t-38 119.5zM111 0l460 700h31l-460 -700h-31zM62 545q0 -64 29.5 -101.5t84.5 -37.5t84.5 37.5t29.5 101.5t-29.5 100.5t-84.5 36.5t-84.5 -36.5t-29.5 -100.5zM395 157
q0 75 37.5 118.5t104.5 43.5t104.5 -43.5t37.5 -118.5t-37.5 -119t-104.5 -44t-104.5 44t-37.5 119zM422 157q0 -64 30 -102t85 -38t84.5 38t29.5 102t-29.5 102t-84.5 38t-85 -38t-30 -102z" />
    <glyph glyph-name="ampersand" unicode="&#x26;" horiz-adv-x="586" 
d="M574 0h-36l-86 103q-69 -115 -209 -115q-92 0 -143.5 47.5t-51.5 127.5q0 42 17 75t39 53t60 47q4 2 6.5 4t5.5 4l45 33l-6 8q-58 69 -80 108t-22 84q0 67 42.5 100t104.5 33q70 0 110 -40t40 -102q0 -46 -25 -84t-81 -79l-43 -32l187 -224q29 66 32 156h25
q-5 -104 -39 -177zM238 403l6 -7l47 35q46 35 67.5 67t21.5 72q0 53 -32.5 85t-87.5 32q-47 0 -81.5 -26.5t-34.5 -81.5q0 -39 21.5 -77.5t72.5 -98.5zM243 14q130 0 192 110l-196 235l-52 -39l-36 -27t-27 -24t-25 -30t-12.5 -32.5t-6.5 -43.5q0 -65 43 -107t120 -42z" />
    <glyph glyph-name="quotesingle" unicode="'" horiz-adv-x="150" 
d="M62 493l-4 207h34l-4 -207h-26z" />
    <glyph glyph-name="parenleft" unicode="(" horiz-adv-x="269" 
d="M255 736q-169 -164 -169 -422t169 -422h-32q-171 158 -171 422t171 422h32z" />
    <glyph glyph-name="parenright" unicode=")" horiz-adv-x="269" 
d="M46 736q171 -158 171 -422t-171 -422h-32q169 164 169 422t-169 422h32z" />
    <glyph glyph-name="asterisk" unicode="*" horiz-adv-x="332" 
d="M184 550l74 -36l52 -30l-15 -26l-52 31l-68 45l6 -81v-61h-30v61l6 81l-68 -45l-52 -31l-15 26l52 30l74 36l-74 36l-52 30l15 26l52 -31l68 -45l-6 81v61h30v-61l-6 -81l68 45l52 31l15 -26l-52 -30z" />
    <glyph glyph-name="plus" unicode="+" horiz-adv-x="488" 
d="M424 349v-26h-168v-162h-24v162h-168v26h168v162h24v-162h168z" />
    <glyph glyph-name="comma" unicode="," horiz-adv-x="178" 
d="M66 -100v172h46v-40l-29 -132h-17z" />
    <glyph glyph-name="hyphen" unicode="-" horiz-adv-x="365" 
d="M64 311h237v-26h-237v26z" />
    <glyph glyph-name="period" unicode="." horiz-adv-x="178" 
d="M66 0v72h46v-72h-46z" />
    <glyph glyph-name="slash" unicode="/" horiz-adv-x="343" 
d="M271 719h32l-249 -771h-32z" />
    <glyph glyph-name="zero" unicode="0" horiz-adv-x="566" 
d="M52 350q0 168 61 265t170 97t170 -97t61 -265t-61 -265t-170 -97t-170 97t-61 265zM84 350q0 -152 51.5 -244t147.5 -92t147.5 92t51.5 244t-51.5 244t-147.5 92t-147.5 -92t-51.5 -244z" />
    <glyph glyph-name="one" unicode="1" horiz-adv-x="316" 
d="M169 700h25v-700h-32v659l-132 -108v35z" />
    <glyph glyph-name="two" unicode="2" horiz-adv-x="481" 
d="M63 26h382v-26h-425v24l242 278q51 59 74.5 89t42.5 71t19 82q0 71 -43 106.5t-111 35.5q-78 0 -126 -51.5t-55 -156.5l-29 3q7 115 63 173t147 58q87 0 136.5 -45t49.5 -123q0 -62 -33 -117t-115 -149z" />
    <glyph glyph-name="three" unicode="3" horiz-adv-x="500" 
d="M392 367q70 -54 70 -163q0 -98 -59.5 -157t-163.5 -59q-92 0 -150.5 50t-66.5 149l29 3q7 -90 59 -133t129 -43q84 0 137.5 50.5t53.5 139.5q0 82 -48 131t-138 49q-50 0 -96 -10v25l257 275h-356v26h397v-24l-258 -271q131 19 204 -38z" />
    <glyph glyph-name="four" unicode="4" horiz-adv-x="557" 
d="M417 203h104v-26h-104v-177h-32v177h-355v24l335 499h52v-497zM65 203h320v477z" />
    <glyph glyph-name="five" unicode="5" horiz-adv-x="511" 
d="M260 453q95 0 154 -61.5t59 -168.5q0 -109 -60 -172t-160 -63q-91 0 -151 49t-72 134l30 3q11 -76 63.5 -118t129.5 -42q78 0 133 53t55 156t-53 153.5t-131 50.5q-56 0 -106 -25t-79 -72l-27 2l29 368h366v-26h-341l-23 -301q70 80 184 80z" />
    <glyph glyph-name="six" unicode="6" horiz-adv-x="549" 
d="M289 447q95 0 156.5 -61t61.5 -168t-59.5 -168.5t-161.5 -61.5q-234 0 -234 342q0 183 61.5 282.5t175.5 99.5q85 0 135.5 -52.5t56.5 -134.5l-30 -3q-5 73 -48 118.5t-114 45.5q-121 0 -173 -137q-32 -86 -32 -259q18 73 72.5 115t132.5 42zM287 14q85 0 136.5 56
t51.5 148t-51.5 148t-136.5 56t-137 -56t-52 -148t52 -148t137 -56z" />
    <glyph glyph-name="seven" unicode="7" horiz-adv-x="486" 
d="M34 700h422v-24q-196 -331 -277 -676h-36q81 339 283 674h-392v26z" />
    <glyph glyph-name="eight" unicode="8" horiz-adv-x="542" 
d="M338 363q78 -15 120 -63.5t42 -120.5q0 -88 -62.5 -139.5t-166.5 -51.5t-166.5 51.5t-62.5 139.5q0 71 42.5 120t120.5 64q-69 14 -108.5 57t-39.5 114q0 84 59.5 131t154.5 47t154.5 -47t59.5 -131q0 -71 -39.5 -114.5t-107.5 -56.5zM89 531q0 -77 50.5 -116.5
t131.5 -39.5t131.5 39.5t50.5 116.5t-50.5 116t-131.5 39t-131.5 -39t-50.5 -116zM271 14q87 0 142 44.5t55 123.5t-55 123t-142 44t-142 -44t-55 -123t55 -123.5t142 -44.5z" />
    <glyph glyph-name="nine" unicode="9" horiz-adv-x="549" 
d="M263 712q234 0 234 -342q0 -186 -59.5 -284t-174.5 -98q-88 0 -138.5 52t-56.5 135l30 3q5 -73 48.5 -118.5t116.5 -45.5q119 0 171 138q19 52 25 106.5t6 157.5q-18 -73 -73 -115t-134 -42q-93 0 -154.5 61t-61.5 165q0 106 59.5 166.5t161.5 60.5zM262 284
q85 0 137 55.5t52 145.5t-52 145.5t-137 55.5t-136.5 -55.5t-51.5 -145.5t51.5 -145.5t136.5 -55.5z" />
    <glyph glyph-name="colon" unicode=":" horiz-adv-x="178" 
d="M66 440v72h46v-72h-46zM66 0v72h46v-72h-46z" />
    <glyph glyph-name="semicolon" unicode=";" horiz-adv-x="178" 
d="M66 440v72h46v-72h-46zM66 -100v172h46v-40l-29 -132h-17z" />
    <glyph glyph-name="less" unicode="&#x3c;" horiz-adv-x="486" 
d="M398 525v-35l-320 -156l320 -144v-35l-340 156v45z" />
    <glyph glyph-name="equal" unicode="=" horiz-adv-x="492" 
d="M66 424h360v-26h-360v26zM66 262h360v-26h-360v26z" />
    <glyph glyph-name="greater" unicode="&#x3e;" horiz-adv-x="486" 
d="M88 525l340 -169v-45l-340 -156v35l320 144l-320 156v35z" />
    <glyph glyph-name="question" unicode="?" horiz-adv-x="463" 
d="M242 712q84 0 133.5 -42t49.5 -127q0 -60 -27.5 -105t-91.5 -100q-43 -36 -57.5 -62t-14.5 -80v-22h-34v24q0 44 11.5 75t25 45.5t44.5 40.5q57 47 83.5 87.5t26.5 96.5q0 71 -39.5 106t-109.5 35q-82 0 -130.5 -48t-55.5 -146l-32 2q7 110 64.5 165t153.5 55zM194 0v72
h46v-72h-46z" />
    <glyph glyph-name="at" unicode="@" horiz-adv-x="875" 
d="M438 651q168 0 277.5 -107.5t109.5 -267.5q0 -98 -41.5 -152t-110.5 -54q-46 0 -78 24.5t-41 72.5q-17 -50 -53 -78t-83 -28q-68 0 -111 55t-43 149q0 95 42.5 150.5t110.5 55.5q46 0 81 -26t52 -70v86h30v-214q0 -77 23 -114.5t74 -37.5q57 0 88.5 47t31.5 132
q0 147 -103 249.5t-256 102.5q-149 0 -254.5 -105.5t-105.5 -256.5q0 -161 102 -262t268 -101q119 0 206 43l16 -23q-91 -45 -222 -45q-181 0 -289.5 106t-108.5 282q0 166 112 276.5t276 110.5zM422 87q59 0 93.5 48.5t34.5 129.5q0 83 -34.5 131.5t-93.5 48.5t-93.5 -48.5
t-34.5 -131.5q0 -81 34.5 -129.5t93.5 -48.5z" />
    <glyph glyph-name="A" unicode="A" horiz-adv-x="631" 
d="M568 0l-78 208h-350l-78 -208h-36l265 700h49l265 -700h-37zM150 236h330l-165 440z" />
    <glyph glyph-name="B" unicode="B" horiz-adv-x="628" 
d="M405 357q81 -7 126 -54.5t45 -122.5q0 -84 -54.5 -132t-154.5 -48h-275v700h275q89 0 141 -46t52 -127q0 -71 -42 -116.5t-113 -53.5zM126 672v-302h251q65 0 107 41.5t42 112.5q0 72 -44.5 110t-116.5 38h-239zM365 28q79 0 128 40t49 115t-48 117t-126 42h-242v-314
h239z" />
    <glyph glyph-name="C" unicode="C" horiz-adv-x="622" 
d="M48 350q0 159 70.5 260.5t205.5 101.5q103 0 173 -60.5t81 -161.5l-31 -4q-10 89 -72 143.5t-151 54.5q-116 0 -179 -96t-63 -238q0 -91 26 -165t83.5 -121.5t138.5 -47.5q95 0 153.5 59.5t67.5 151.5l31 -4q-11 -101 -76.5 -168t-175.5 -67q-138 0 -210 99.5t-72 262.5z
" />
    <glyph glyph-name="D" unicode="D" horiz-adv-x="650" 
d="M92 0v700h222q137 0 212.5 -92t75.5 -258t-75.5 -258t-212.5 -92h-222zM126 28h187q121 0 188 85.5t67 236.5t-67 236.5t-188 85.5h-187v-644z" />
    <glyph glyph-name="E" unicode="E" horiz-adv-x="567" 
d="M92 0v700h417v-28h-383v-302h307v-28h-307v-314h397v-28h-431z" />
    <glyph glyph-name="F" unicode="F" horiz-adv-x="534" 
d="M92 0v700h404v-28h-370v-317h304v-28h-304v-327h-34z" />
    <glyph glyph-name="G" unicode="G" horiz-adv-x="632" 
d="M48 350q0 103 29 183t93 129.5t155 49.5q100 0 168.5 -56t84.5 -151l-31 -5q-14 83 -75.5 133.5t-146.5 50.5q-117 0 -180 -96t-63 -238t71 -238t203 -96q104 0 196 52v244h-209v28h241v-289q-112 -63 -230 -63q-77 0 -136 28t-96 78t-55.5 114.5t-18.5 141.5z" />
    <glyph glyph-name="H" unicode="H" horiz-adv-x="678" 
d="M552 700h34v-700h-34v342h-426v-342h-34v700h34v-330h426v330z" />
    <glyph glyph-name="I" unicode="I" horiz-adv-x="218" 
d="M92 0v700h34v-700h-34z" />
    <glyph glyph-name="J" unicode="J" horiz-adv-x="524" 
d="M42 182v58h32v-58q0 -80 46.5 -123t115.5 -43q71 0 116.5 47t45.5 129v508h34v-511q0 -97 -54 -149t-142 -52q-89 0 -141.5 51.5t-52.5 142.5z" />
    <glyph glyph-name="K" unicode="K" horiz-adv-x="632" 
d="M602 0h-41l-278 342h-157v-342h-34v700h34v-330h159l261 330h38l-274 -342z" />
    <glyph glyph-name="L" unicode="L" horiz-adv-x="508" 
d="M92 0v700h34v-672h346v-28h-380z" />
    <glyph glyph-name="M" unicode="M" horiz-adv-x="860" 
d="M709 700h59l-1 -700h-34v673l-279 -673h-49l-279 673v-673h-34v700h59l279 -677z" />
    <glyph glyph-name="N" unicode="N" horiz-adv-x="684" 
d="M558 700h34v-700h-58l-408 677v-677h-34v700h58l408 -677v677z" />
    <glyph glyph-name="O" unicode="O" horiz-adv-x="670" 
d="M48 350q0 156 74.5 259t212.5 103t212.5 -103t74.5 -259t-74.5 -259t-212.5 -103t-212.5 103t-74.5 259zM82 350q0 -144 66.5 -239t186.5 -95t186.5 95t66.5 239t-66.5 239t-186.5 95t-186.5 -95t-66.5 -239z" />
    <glyph glyph-name="P" unicode="P" horiz-adv-x="601" 
d="M92 0v700h248q93 0 154 -50t61 -150t-61 -150t-154 -50h-214v-300h-34zM126 328h212q82 0 132.5 43.5t50.5 128.5t-50.5 128.5t-132.5 43.5h-212v-344z" />
    <glyph glyph-name="Q" unicode="Q" horiz-adv-x="670" 
d="M622 350q0 -103 -33.5 -186.5t-98.5 -129.5l71 -94l-23 -16l-72 95q-57 -31 -131 -31q-138 0 -212.5 103t-74.5 259t74.5 259t212.5 103t212.5 -103t74.5 -259zM335 16q62 0 112 28l-59 78l23 16l60 -79q57 42 87 119t30 172q0 144 -66.5 239t-186.5 95t-186.5 -95
t-66.5 -239t66.5 -239t186.5 -95z" />
    <glyph glyph-name="R" unicode="R" horiz-adv-x="623" 
d="M587 0h-43l-229 308h-189v-308h-34v700h255q93 0 154 -49.5t61 -146.5q0 -96 -59 -145t-150 -51zM126 672v-336h219q81 0 132 43t51 125t-51 125t-132 43h-219z" />
    <glyph glyph-name="S" unicode="S" horiz-adv-x="566" 
d="M38 198l32 2q3 -89 59.5 -136.5t157.5 -47.5q88 0 143.5 36.5t55.5 115.5q0 53 -31 88.5t-102 58.5l-142 45q-149 47 -149 178q0 86 58.5 130t150.5 44q100 0 161.5 -49.5t68.5 -137.5l-31 -3q-4 75 -58.5 118.5t-140.5 43.5q-79 0 -127 -38t-48 -108q0 -108 128 -148
l142 -44q80 -25 117 -68t37 -110q0 -88 -61.5 -134t-171.5 -46q-116 0 -180 55t-69 155z" />
    <glyph glyph-name="T" unicode="T" horiz-adv-x="536" 
d="M28 672v28h480v-28h-223v-672h-34v672h-223z" />
    <glyph glyph-name="U" unicode="U" horiz-adv-x="682" 
d="M92 253v447h34v-443q0 -125 53.5 -183t161.5 -58t161.5 58t53.5 183v443h34v-447q0 -135 -60.5 -200t-188.5 -65t-188.5 65t-60.5 200z" />
    <glyph glyph-name="V" unicode="V" horiz-adv-x="607" 
d="M541 700h38l-252 -700h-48l-251 700h38l238 -671z" />
    <glyph glyph-name="W" unicode="W" horiz-adv-x="923" 
d="M854 700h37l-199 -700h-52l-179 676l-179 -676h-52l-198 700h38l186 -673l180 673h52l179 -673z" />
    <glyph glyph-name="X" unicode="X" horiz-adv-x="618" 
d="M36 0l250 355l-234 345h43l212 -317l212 317h41l-233 -344l253 -356h-43l-230 329l-230 -329h-41z" />
    <glyph glyph-name="Y" unicode="Y" horiz-adv-x="614" 
d="M553 700h39l-268 -397v-303h-34v302l-268 398h41l244 -369z" />
    <glyph glyph-name="Z" unicode="Z" horiz-adv-x="533" 
d="M67 28h434v-28h-477v24l427 648h-407v28h449v-24z" />
    <glyph glyph-name="bracketleft" unicode="[" horiz-adv-x="252" 
d="M214 695h-88v-778h88v-24h-118v826h118v-24z" />
    <glyph glyph-name="backslash" unicode="\" horiz-adv-x="343" 
d="M72 719l249 -771h-32l-249 771h32z" />
    <glyph glyph-name="bracketright" unicode="]" horiz-adv-x="252" 
d="M156 719v-826h-118v24h88v778h-88v24h118z" />
    <glyph glyph-name="asciicircum" unicode="^" horiz-adv-x="349" 
d="M323 474h-33l-115 211l-116 -211h-33l127 226h43z" />
    <glyph glyph-name="underscore" unicode="_" horiz-adv-x="388" 
d="M18 -57h352v-24h-352v24z" />
    <glyph glyph-name="grave" unicode="`" horiz-adv-x="199" 
d="M159 598h-30l-89 136h36z" />
    <glyph glyph-name="a" unicode="a" horiz-adv-x="516" 
d="M44 129q0 136 189 155l179 18v79q0 55 -38.5 92.5t-113.5 36.5q-69 0 -113.5 -33t-47.5 -98h-31q3 78 54 117.5t138 39.5q92 0 138 -42.5t46 -117.5v-376h-28v123q-21 -63 -76 -99t-134 -36q-83 0 -122.5 39t-39.5 102zM76 129q0 -50 33.5 -82.5t103.5 -32.5
q94 0 146.5 59.5t52.5 159.5v42l-176 -18q-160 -16 -160 -128z" />
    <glyph glyph-name="b" unicode="b" horiz-adv-x="552" 
d="M78 0v736h32v-331q23 60 72.5 95.5t116.5 35.5q96 0 153.5 -73t57.5 -201t-57.5 -201t-154.5 -73q-69 0 -119.5 38.5t-72.5 105.5v-132h-28zM108 262q0 -112 50 -180t135 -68t135 68t50 180t-50 180t-135 68t-135 -68t-50 -180z" />
    <glyph glyph-name="c" unicode="c" horiz-adv-x="496" 
d="M42 262q0 132 58.5 203t158.5 71q77 0 131.5 -44.5t67.5 -129.5l-29 -4q-12 74 -58.5 113t-111.5 39q-83 0 -134 -66t-51 -182t51.5 -182t135.5 -66q65 0 112 41t59 117l30 -4q-14 -86 -68 -133t-133 -47q-101 0 -160 71t-59 203z" />
    <glyph glyph-name="d" unicode="d" horiz-adv-x="552" 
d="M42 262q0 128 57.5 201t153.5 73q67 0 116.5 -35.5t72.5 -95.5v331h32v-736h-28v132q-22 -67 -72.5 -105.5t-119.5 -38.5q-97 0 -154.5 73t-57.5 201zM74 262q0 -112 50 -180t135 -68t135 68t50 180t-50 180t-135 68t-135 -68t-50 -180z" />
    <glyph glyph-name="e" unicode="e" horiz-adv-x="514" 
d="M42 262q0 132 61 203t159 71q100 0 156 -70t56 -204v-8h-400q2 -113 55 -176.5t140 -63.5q62 0 106.5 32.5t61.5 85.5l29 -3q-19 -65 -70 -103t-127 -38q-105 0 -166 70.5t-61 203.5zM74 280h368q-1 105 -50.5 167.5t-129.5 62.5t-132 -61t-56 -169z" />
    <glyph glyph-name="f" unicode="f" horiz-adv-x="301" 
d="M22 498v26h97v92q0 78 24.5 105t88.5 27q24 0 55 -3v-25q-40 2 -51 2q-51 0 -68 -23t-17 -89v-86h123v-26h-123v-498h-32v498h-97z" />
    <glyph glyph-name="g" unicode="g" horiz-adv-x="548" 
d="M42 273q0 121 58.5 192t155.5 71q67 0 115.5 -35t70.5 -95v118h28v-515q0 -112 -47.5 -166.5t-154.5 -54.5q-90 0 -140 39t-53 118h30q3 -67 46.5 -99t116.5 -32q90 -1 130 47.5t40 138.5v131q-51 -121 -181 -121q-97 0 -156 71t-59 192zM74 273q0 -105 50.5 -171
t134.5 -66t134.5 66t50.5 171t-50.5 171t-134.5 66t-134.5 -66t-50.5 -171z" />
    <glyph glyph-name="h" unicode="h" horiz-adv-x="546" 
d="M78 0v736h32v-313q21 53 69.5 83t118.5 30q84 0 130 -43t46 -133v-360h-32v349q0 161 -148 161q-87 0 -135.5 -53.5t-48.5 -147.5v-309h-32z" />
    <glyph glyph-name="i" unicode="i" horiz-adv-x="188" 
d="M77 624v92h34v-92h-34zM78 0v524h32v-524h-32z" />
    <glyph glyph-name="j" unicode="j" horiz-adv-x="188" 
d="M77 624v92h34v-92h-34zM-28 -208v25q23 -3 41 -3q36 0 50.5 16t14.5 63v631h32v-641q0 -52 -21 -73.5t-66 -21.5q-19 0 -51 4z" />
    <glyph glyph-name="k" unicode="k" horiz-adv-x="507" 
d="M493 0h-43l-241 254h-99v-254h-32v736h32v-456h100l229 244h43l-245 -256z" />
    <glyph glyph-name="l" unicode="l" horiz-adv-x="188" 
d="M78 736h32v-736h-32v736z" />
    <glyph glyph-name="m" unicode="m" horiz-adv-x="856" 
d="M78 0v524h28v-110q19 58 65 90t112 32q63 0 105.5 -31t54.5 -91q19 58 65 90t112 32q75 0 119.5 -42.5t44.5 -125.5v-368h-32v357q0 74 -35 113.5t-100 39.5q-78 0 -124 -54t-46 -147v-309h-32v357q0 74 -35 113.5t-100 39.5q-78 0 -124 -54t-46 -147v-309h-32z" />
    <glyph glyph-name="n" unicode="n" horiz-adv-x="546" 
d="M78 0v524h28v-112q20 58 69.5 91t122.5 33q84 0 130 -43t46 -133v-360h-32v349q0 161 -148 161q-87 0 -135.5 -53.5t-48.5 -147.5v-309h-32z" />
    <glyph glyph-name="o" unicode="o" horiz-adv-x="528" 
d="M42 262q0 128 60.5 201t161.5 73t161.5 -73t60.5 -201t-60.5 -201t-161.5 -73t-161.5 73t-60.5 201zM74 262q0 -114 51.5 -181t138.5 -67t138.5 67t51.5 181t-51.5 181t-138.5 67t-138.5 -67t-51.5 -181z" />
    <glyph glyph-name="p" unicode="p" horiz-adv-x="552" 
d="M78 -200v724h28v-130q22 65 72.5 103.5t120.5 38.5q96 0 153.5 -73t57.5 -201t-57.5 -201t-154.5 -73q-66 0 -115 35.5t-73 97.5v-321h-32zM108 262q0 -112 50 -180t135 -68t135 68t50 180t-50 180t-135 68t-135 -68t-50 -180z" />
    <glyph glyph-name="q" unicode="q" horiz-adv-x="552" 
d="M42 262q0 128 57.5 201t153.5 73q70 0 120.5 -38.5t72.5 -103.5v130h28v-724h-32v321q-24 -62 -73 -97.5t-115 -35.5q-97 0 -154.5 73t-57.5 201zM74 262q0 -112 50 -180t135 -68t135 68t50 180t-50 180t-135 68t-135 -68t-50 -180z" />
    <glyph glyph-name="r" unicode="r" horiz-adv-x="358" 
d="M268 532q29 0 56 -4v-33q-29 4 -57 4q-156 0 -156 -215v-284h-33l1 524h28v-116q18 60 59.5 92t101.5 32z" />
    <glyph glyph-name="s" unicode="s" horiz-adv-x="456" 
d="M30 138l30 2q5 -64 49 -95t117 -31t116.5 30t43.5 83q0 39 -27.5 64.5t-90.5 45.5l-109 35q-114 37 -114 135q0 64 43.5 96.5t123.5 32.5q86 0 137 -36.5t58 -107.5l-30 -2q-6 59 -51.5 89.5t-113.5 30.5q-60 2 -97.5 -25.5t-37.5 -77.5q0 -75 100 -108l109 -35
q68 -22 100 -54t32 -83q0 -64 -48 -101.5t-144 -37.5q-184 0 -196 150z" />
    <glyph glyph-name="t" unicode="t" horiz-adv-x="331" 
d="M295 498h-132v-377q0 -60 14.5 -81.5t56.5 -21.5q24 0 61 5v-25q-33 -6 -63 -6q-61 0 -81 27.5t-20 95.5v383h-111v24h90q25 0 25 27v85h28v-110h132v-26z" />
    <glyph glyph-name="u" unicode="u" horiz-adv-x="546" 
d="M436 524h32v-524h-28v119q-20 -61 -69 -96t-123 -35q-83 0 -129.5 44.5t-46.5 138.5v353h32v-344q0 -166 148 -166q86 0 135 58t49 153v299z" />
    <glyph glyph-name="v" unicode="v" horiz-adv-x="500" 
d="M440 524h36l-204 -524h-45l-203 524h36l190 -498z" />
    <glyph glyph-name="w" unicode="w" horiz-adv-x="806" 
d="M742 524h36l-176 -524h-46l-152 502l-153 -502h-48l-175 524h37l162 -500l154 500h47l152 -497z" />
    <glyph glyph-name="x" unicode="x" horiz-adv-x="514" 
d="M486 0h-42l-188 240l-187 -240h-41l207 263l-200 261h42l179 -236l178 236h41l-198 -260z" />
    <glyph glyph-name="y" unicode="y" horiz-adv-x="504" 
d="M444 524h36l-224 -606q-28 -78 -51 -104t-78 -26q-21 0 -42 3v25q26 -2 40 -2q39 0 59 23t44 90l26 73h-16l-214 524h36l203 -507z" />
    <glyph glyph-name="z" unicode="z" horiz-adv-x="438" 
d="M66 26h342v-26h-382v23l337 475h-318v26h358v-23z" />
    <glyph glyph-name="braceleft" unicode="{" horiz-adv-x="310" 
d="M176 447q0 -120 -78 -139v-4q78 -19 78 -139v-134q0 -61 20.5 -87.5t69.5 -26.5h6v-24h-8q-60 0 -89 31.5t-29 101.5v133q0 78 -25 106.5t-70 28.5h-6v24h6q45 0 70 28.5t25 106.5v133q0 70 29 101.5t89 31.5h8v-24h-6q-49 0 -69.5 -26.5t-20.5 -87.5v-134z" />
    <glyph glyph-name="bar" unicode="|" horiz-adv-x="214" 
d="M92 736h30v-857h-30v857z" />
    <glyph glyph-name="braceright" unicode="}" horiz-adv-x="310" 
d="M259 318h6v-24h-6q-45 0 -70 -28.5t-25 -106.5v-133q0 -70 -29 -101.5t-89 -31.5h-8v24h6q49 0 69.5 26.5t20.5 87.5v134q0 120 78 139v4q-78 19 -78 139v134q0 61 -20.5 87.5t-69.5 26.5h-6v24h8q60 0 89 -31.5t29 -101.5v-133q0 -78 25 -106.5t70 -28.5z" />
    <glyph glyph-name="asciitilde" unicode="~" horiz-adv-x="538" 
d="M426 395h30q0 -48 -25.5 -78.5t-69.5 -30.5q-35 0 -67.5 22t-62 44t-56.5 22q-31 0 -47 -22.5t-16 -54.5h-30q0 48 25.5 78.5t69.5 30.5q35 0 67.5 -22t62 -44t56.5 -22q31 0 47 22.5t16 54.5z" />
    <glyph glyph-name="uni00A0" unicode="&#xa0;" horiz-adv-x="246" 
 />
    <glyph glyph-name="exclamdown" unicode="&#xa1;" horiz-adv-x="250" 
d="M102 524h46v-72h-46v72zM138 351l7 -527h-40l7 527h26z" />
    <glyph glyph-name="cent" unicode="&#xa2;" horiz-adv-x="489" 
d="M455 163q-14 -81 -63.5 -126t-122.5 -49v-74h-28v75q-92 6 -145.5 76.5t-53.5 196.5t53.5 197t145.5 77v74h28v-74q70 -4 119.5 -47t62.5 -122l-27 -3q-12 68 -54.5 105.5t-100.5 41.5v-498q59 4 102.5 43.5t55.5 109.5zM72 262q0 -111 46 -176t123 -72v496
q-76 -6 -122.5 -71.5t-46.5 -176.5z" />
    <glyph glyph-name="sterling" unicode="&#xa3;" horiz-adv-x="485" 
d="M58 26h399v-26h-434v22q99 120 99 227q0 34 -12 82h-76v26h70q-20 82 -20 137q0 100 49.5 153t133.5 53q80 0 125.5 -51t49.5 -148l-30 -3q-9 176 -145 176q-70 0 -110 -48t-40 -136q0 -45 21 -133h215v-26h-209q10 -54 10 -83q0 -105 -96 -222z" />
    <glyph glyph-name="currency" unicode="&#xa4;" horiz-adv-x="556" 
d="M473 297q0 -80 -43 -131l86 -86l-21 -21l-87 87q-50 -42 -130 -42q-78 0 -130 41l-87 -86l-21 21l86 87q-43 51 -43 130q0 80 43 131l-86 86l21 21l87 -87q49 42 130 42q78 0 130 -41l87 86l21 -21l-86 -87q43 -51 43 -130zM115 297q0 -76 44 -121.5t119 -45.5t119 45.5
t44 121.5t-44 121.5t-119 45.5t-119 -45.5t-44 -121.5z" />
    <glyph glyph-name="yen" unicode="&#xa5;" horiz-adv-x="580" 
d="M306 313v-8h202v-26h-202v-79h202v-26h-202v-174h-32v174h-202v26h202v79h-202v26h202v7l-252 376h39l229 -348l231 348h37z" />
    <glyph glyph-name="brokenbar" unicode="&#xa6;" horiz-adv-x="214" 
d="M92 736h30v-332h-30v332zM92 227h30v-348h-30v348z" />
    <glyph glyph-name="section" unicode="&#xa7;" horiz-adv-x="483" 
d="M353 171q74 -41 74 -117q0 -65 -44.5 -103.5t-132.5 -38.5q-84 0 -133 39.5t-55 114.5l30 2q5 -65 48.5 -97.5t109.5 -32.5q64 0 104.5 31t40.5 85q0 40 -27.5 66.5t-90.5 47.5l-109 36q-114 37 -114 139q0 86 87 118q-66 41 -66 119q0 65 43.5 98.5t116.5 33.5
q77 0 124 -38t54 -110l-30 -2q-6 62 -46.5 93t-101.5 31q-55 2 -91.5 -26.5t-36.5 -79.5q0 -79 95 -112l104 -36q65 -23 96 -56t31 -85q0 -82 -80 -120zM186 231l109 -36l25 -9q81 28 81 105q0 41 -26 67.5t-86 46.5l-105 36q-6 2 -9 4q-41 -9 -65 -35.5t-24 -66.5
q0 -79 100 -112z" />
    <glyph glyph-name="dieresis" unicode="&#xa8;" horiz-adv-x="262" 
d="M40 624v92h34v-92h-34zM188 624v92h34v-92h-34z" />
    <glyph glyph-name="copyright" unicode="&#xa9;" horiz-adv-x="820" 
d="M410 -12q-158 0 -260 99.5t-102 262.5t102 262.5t260 99.5t260 -99.5t102 -262.5t-102 -262.5t-260 -99.5zM410 13q146 0 239 96t93 241t-93 241t-239 96t-239 -96t-93 -241t93 -241t239 -96zM257 350q0 96 41.5 148.5t112.5 52.5q55 0 94 -33t48 -97l-27 -3
q-8 53 -39.5 81t-75.5 28q-55 0 -90 -47t-35 -130q0 -84 35 -131t92 -47q44 0 76 29.5t40 83.5l27 -3q-10 -64 -48.5 -98.5t-94.5 -34.5q-72 0 -114 52t-42 149z" />
    <glyph glyph-name="guillemotleft" unicode="&#xab;" horiz-adv-x="373" 
d="M194 446l-133 -166l133 -166h-39l-119 151v30l119 151h39zM325 446l-133 -166l133 -166h-39l-119 151v30l119 151h39z" />
    <glyph glyph-name="logicalnot" unicode="&#xac;" horiz-adv-x="504" 
d="M72 349h350v-128h-30v102h-320v26z" />
    <glyph glyph-name="registered" unicode="&#xae;" horiz-adv-x="580" 
d="M290 212q-104 0 -177 72t-73 178t73 178t177 72t177 -72t73 -178t-73 -178t-177 -72zM290 239q91 0 155.5 64.5t64.5 158.5t-64.5 158.5t-155.5 64.5t-155.5 -64.5t-64.5 -158.5t64.5 -158.5t155.5 -64.5zM219 334v258h86q30 0 49.5 -18.5t19.5 -56.5q0 -35 -15 -54
t-39 -22l61 -107h-38l-57 106h-37v-106h-30zM249 466h51q41 0 41 51q0 48 -40 48h-52v-99z" />
    <glyph glyph-name="macron" unicode="&#xaf;" horiz-adv-x="328" 
d="M40 647v26h248v-26h-248z" />
    <glyph glyph-name="degree" unicode="&#xb0;" horiz-adv-x="338" 
d="M169 442q-56 0 -94.5 37t-38.5 98t38.5 98t94.5 37t94.5 -37t38.5 -98t-38.5 -98t-94.5 -37zM169 469q44 0 73.5 30.5t29.5 77.5t-29.5 77.5t-73.5 30.5t-73.5 -30.5t-29.5 -77.5t29.5 -77.5t73.5 -30.5z" />
    <glyph glyph-name="plusminus" unicode="&#xb1;" horiz-adv-x="516" 
d="M270 397h168v-26h-168v-128h-24v128h-168v26h168v142h24v-142zM78 149v26h360v-26h-360z" />
    <glyph glyph-name="uni00B2" unicode="&#xb2;" horiz-adv-x="331" 
d="M59 355h242v-24h-281v22l154 167q48 51 67.5 81t19.5 66q0 41 -26 62t-67 21q-101 0 -111 -124l-28 3q4 72 41.5 108.5t97.5 36.5q57 0 90 -28.5t33 -78.5q0 -39 -21 -73t-74 -91z" />
    <glyph glyph-name="uni00B3" unicode="&#xb3;" horiz-adv-x="347" 
d="M263 562q49 -32 49 -102q0 -62 -40.5 -98t-109.5 -36q-62 0 -101 31t-45 93l28 2q5 -52 37 -77t81 -25q53 0 86.5 29t33.5 81q0 48 -30 76.5t-87 28.5q-29 0 -64 -6v21l163 160h-230v24h267v-21l-165 -158q80 9 127 -23z" />
    <glyph glyph-name="acute" unicode="&#xb4;" horiz-adv-x="199" 
d="M40 598l83 136h36l-89 -136h-30z" />
    <glyph glyph-name="paragraph" unicode="&#xb6;" horiz-adv-x="504" 
d="M60 518q0 81 50 131.5t135 50.5h25v-785h-30v421q-81 0 -130.5 50.5t-49.5 131.5zM370 700h30v-785h-30v785z" />
    <glyph glyph-name="periodcentered" unicode="&#xb7;" horiz-adv-x="178" 
d="M66 274v72h46v-72h-46z" />
    <glyph glyph-name="cedilla" unicode="&#xb8;" horiz-adv-x="241" 
d="M127 -54q28 0 51 -18t23 -54t-24 -54.5t-55 -18.5t-53 15.5t-29 44.5l28 3q6 -39 54 -39q22 0 36.5 12t14.5 37t-14.5 37t-35.5 12q-19 0 -43 -11l-26 11l41 77h27l-36 -65q22 11 41 11z" />
    <glyph glyph-name="uni00B9" unicode="&#xb9;" horiz-adv-x="235" 
d="M117 764h25v-431h-30v391l-78 -72v37z" />
    <glyph glyph-name="guillemotright" unicode="&#xbb;" horiz-adv-x="373" 
d="M87 446l119 -151v-30l-119 -151h-39l133 166l-133 166h39zM218 446l119 -151v-30l-119 -151h-39l133 166l-133 166h39z" />
    <glyph glyph-name="onequarter" unicode="&#xbc;" horiz-adv-x="637" 
d="M490 700h33l-460 -700h-33zM94 340v320l-64 -54v35l71 59h23v-360h-30zM547 113h62v-24h-62v-89h-30v89h-212v22l193 249h49v-247zM337 113h180v231z" />
    <glyph glyph-name="onehalf" unicode="&#xbd;" horiz-adv-x="650" 
d="M490 700h33l-460 -700h-33zM94 340v320l-64 -54v35l71 59h23v-360h-30zM417 24h203v-24h-243v22l130 137q29 31 40.5 45t22.5 35t11 41q0 34 -21 51t-56 17q-39 0 -62.5 -25.5t-27.5 -75.5l-29 2q4 61 36.5 92t82.5 31q49 0 78 -24.5t29 -67.5q0 -32 -18.5 -61.5
t-62.5 -75.5z" />
    <glyph glyph-name="threequarters" unicode="&#xbe;" horiz-adv-x="743" 
d="M272 443q0 -54 -35.5 -84.5t-95.5 -30.5q-53 0 -87.5 27t-39.5 80l30 2q4 -43 30.5 -64t66.5 -21q44 0 72.5 24.5t28.5 66.5q0 39 -25.5 62.5t-72.5 23.5q-25 0 -56 -6v22l135 131h-193v24h233v-22l-135 -127q65 6 102 -20q42 -29 42 -88zM596 700h33l-460 -700h-33z
M653 113h62v-24h-62v-89h-30v89h-212v22l193 249h49v-247zM443 113h180v231z" />
    <glyph glyph-name="questiondown" unicode="&#xbf;" horiz-adv-x="463" 
d="M269 524v-72h-46v72h46zM221 -188q-84 0 -133.5 42t-49.5 127q0 60 27.5 105t91.5 100q43 36 57.5 62t14.5 80v22h34v-24q0 -44 -11.5 -75t-25 -45.5t-44.5 -40.5q-57 -47 -83.5 -87.5t-26.5 -96.5q0 -71 39.5 -106t109.5 -35q82 0 130.5 48t55.5 146l32 -2
q-7 -110 -64.5 -165t-153.5 -55z" />
    <glyph glyph-name="Agrave" unicode="&#xc0;" horiz-adv-x="631" 
d="M333 766h-31l-101 110h40zM568 0l-78 208h-350l-78 -208h-36l265 700h49l265 -700h-37zM315 676l-165 -440h330z" />
    <glyph glyph-name="Aacute" unicode="&#xc1;" horiz-adv-x="631" 
d="M434 876l-101 -110h-31l92 110h40zM568 0l-78 208h-350l-78 -208h-36l265 700h49l265 -700h-37zM315 676l-165 -440h330z" />
    <glyph glyph-name="Acircumflex" unicode="&#xc2;" horiz-adv-x="631" 
d="M316 865l-91 -95h-32l99 110h48l99 -110h-32zM568 0l-78 208h-350l-78 -208h-36l265 700h49l265 -700h-37zM315 676l-165 -440h330z" />
    <glyph glyph-name="Atilde" unicode="&#xc3;" horiz-adv-x="631" 
d="M253 825q-20 0 -30.5 -14t-10.5 -36h-26q0 34 17.5 55t49.5 21q29 0 67 -28t59 -28q20 0 30.5 14t10.5 36h26q0 -34 -17.5 -55t-49.5 -21q-30 0 -67.5 28t-58.5 28zM568 0l-78 208h-350l-78 -208h-36l265 700h49l265 -700h-37zM315 676l-165 -440h330z" />
    <glyph glyph-name="Adieresis" unicode="&#xc4;" horiz-adv-x="631" 
d="M251 846v-75h-36v75h36zM417 846v-75h-36v75h36zM568 0l-78 208h-350l-78 -208h-36l265 700h49l265 -700h-37zM315 676l-165 -440h330z" />
    <glyph glyph-name="Aring" unicode="&#xc5;" horiz-adv-x="631" 
d="M316 750q-36 0 -64 21.5t-28 63.5t28 63.5t64 21.5t64 -21.5t28 -63.5t-28 -63.5t-64 -21.5zM316 895q-26 0 -45 -16.5t-19 -43.5t19 -43.5t45 -16.5t45 16.5t19 43.5t-19 43.5t-45 16.5zM568 0l-78 208h-350l-78 -208h-36l265 700h49l265 -700h-37zM315 676l-165 -440
h330z" />
    <glyph glyph-name="AE" unicode="&#xc6;" horiz-adv-x="962" 
d="M18 0l390 700h496v-28h-383v-302h307v-28h-307v-314h397v-28h-431v208h-314l-115 -208h-40zM188 236h299v436h-58z" />
    <glyph glyph-name="Ccedilla" unicode="&#xc7;" horiz-adv-x="622" 
d="M330 -12h-15l-28 -51q20 9 40 9q28 0 51 -18t23 -54t-24 -54.5t-55 -18.5t-53 15.5t-29 44.5l28 3q6 -39 54 -39q22 0 36.5 12t14.5 37t-14.5 37t-35.5 12q-19 0 -43 -11l-26 11l36 67q-119 15 -180.5 112.5t-61.5 247.5q0 159 70.5 260.5t205.5 101.5q103 0 173 -60.5
t81 -161.5l-31 -4q-10 89 -72 143.5t-151 54.5q-116 0 -179 -96t-63 -238q0 -91 26 -165t83.5 -121.5t138.5 -47.5q95 0 153.5 59.5t67.5 151.5l31 -4q-11 -101 -76.5 -168t-175.5 -67z" />
    <glyph glyph-name="Egrave" unicode="&#xc8;" horiz-adv-x="567" 
d="M307 766h-31l-101 110h40zM92 0v700h417v-28h-383v-302h307v-28h-307v-314h397v-28h-431z" />
    <glyph glyph-name="Eacute" unicode="&#xc9;" horiz-adv-x="567" 
d="M267 766l92 110h40l-101 -110h-31zM92 0v700h417v-28h-383v-302h307v-28h-307v-314h397v-28h-431z" />
    <glyph glyph-name="Ecircumflex" unicode="&#xca;" horiz-adv-x="567" 
d="M410 770h-32l-91 95l-91 -95h-32l99 110h48zM92 0v700h417v-28h-383v-302h307v-28h-307v-314h397v-28h-431z" />
    <glyph glyph-name="Edieresis" unicode="&#xcb;" horiz-adv-x="567" 
d="M186 771v75h36v-75h-36zM352 771v75h36v-75h-36zM92 0v700h417v-28h-383v-302h307v-28h-307v-314h397v-28h-431z" />
    <glyph glyph-name="Igrave" unicode="&#xcc;" horiz-adv-x="218" 
d="M126 766h-29l-80 110h36zM92 0v700h34v-700h-34z" />
    <glyph glyph-name="Iacute" unicode="&#xcd;" horiz-adv-x="218" 
d="M92 766l73 110h36l-80 -110h-29zM92 0v700h34v-700h-34z" />
    <glyph glyph-name="Icircumflex" unicode="&#xce;" horiz-adv-x="218" 
d="M232 770h-32l-91 95l-91 -95h-32l99 110h48zM92 0v700h34v-700h-34z" />
    <glyph glyph-name="Idieresis" unicode="&#xcf;" horiz-adv-x="218" 
d="M28 771v75h34v-75h-34zM156 771v75h34v-75h-34zM92 0v700h34v-700h-34z" />
    <glyph glyph-name="Eth" unicode="&#xd0;" horiz-adv-x="664" 
d="M328 700q137 0 212.5 -92t75.5 -258t-75.5 -258t-212.5 -92h-222v337h-72v26h72v337h222zM327 28q121 0 188 85.5t67 236.5t-67 236.5t-188 85.5h-187v-309h229v-26h-229v-309h187z" />
    <glyph glyph-name="Ntilde" unicode="&#xd1;" horiz-adv-x="684" 
d="M279 825q-20 0 -30.5 -14t-10.5 -36h-26q0 34 17.5 55t49.5 21q29 0 67 -28t59 -28q20 0 30.5 14t10.5 36h26q0 -34 -17.5 -55t-49.5 -21q-29 0 -67 28t-59 28zM558 700h34v-700h-58l-408 677v-677h-34v700h58l408 -677v677z" />
    <glyph glyph-name="Ograve" unicode="&#xd2;" horiz-adv-x="670" 
d="M355 766h-31l-101 110h40zM48 350q0 156 74.5 259t212.5 103t212.5 -103t74.5 -259t-74.5 -259t-212.5 -103t-212.5 103t-74.5 259zM82 350q0 -144 66.5 -239t186.5 -95t186.5 95t66.5 239t-66.5 239t-186.5 95t-186.5 -95t-66.5 -239z" />
    <glyph glyph-name="Oacute" unicode="&#xd3;" horiz-adv-x="670" 
d="M315 766l92 110h40l-101 -110h-31zM48 350q0 156 74.5 259t212.5 103t212.5 -103t74.5 -259t-74.5 -259t-212.5 -103t-212.5 103t-74.5 259zM82 350q0 -144 66.5 -239t186.5 -95t186.5 95t66.5 239t-66.5 239t-186.5 95t-186.5 -95t-66.5 -239z" />
    <glyph glyph-name="Ocircumflex" unicode="&#xd4;" horiz-adv-x="670" 
d="M458 770h-32l-91 95l-91 -95h-32l99 110h48zM48 350q0 156 74.5 259t212.5 103t212.5 -103t74.5 -259t-74.5 -259t-212.5 -103t-212.5 103t-74.5 259zM82 350q0 -144 66.5 -239t186.5 -95t186.5 95t66.5 239t-66.5 239t-186.5 95t-186.5 -95t-66.5 -239z" />
    <glyph glyph-name="Otilde" unicode="&#xd5;" horiz-adv-x="670" 
d="M439 845h26q0 -34 -17.5 -55t-49.5 -21q-30 0 -68 28t-58 28t-30.5 -14t-10.5 -36h-26q0 34 17.5 55t49.5 21q30 0 68 -28t58 -28t30.5 14t10.5 36zM48 350q0 156 74.5 259t212.5 103t212.5 -103t74.5 -259t-74.5 -259t-212.5 -103t-212.5 103t-74.5 259zM82 350
q0 -144 66.5 -239t186.5 -95t186.5 95t66.5 239t-66.5 239t-186.5 95t-186.5 -95t-66.5 -239z" />
    <glyph glyph-name="Odieresis" unicode="&#xd6;" horiz-adv-x="670" 
d="M234 771v75h36v-75h-36zM400 771v75h36v-75h-36zM48 350q0 156 74.5 259t212.5 103t212.5 -103t74.5 -259t-74.5 -259t-212.5 -103t-212.5 103t-74.5 259zM82 350q0 -144 66.5 -239t186.5 -95t186.5 95t66.5 239t-66.5 239t-186.5 95t-186.5 -95t-66.5 -239z" />
    <glyph glyph-name="multiply" unicode="&#xd7;" horiz-adv-x="490" 
d="M414 484l-149 -149l149 -149l-20 -20l-149 149l-149 -149l-20 20l149 149l-149 149l20 20l149 -149l149 149z" />
    <glyph glyph-name="Oslash" unicode="&#xd8;" horiz-adv-x="670" 
d="M548 608q74 -100 74 -258q0 -156 -74.5 -259t-212.5 -103q-119 0 -195 82l-59 -77l-25 14l65 86q-73 98 -73 257q0 156 74.5 259t212.5 103q118 0 194 -81l58 76l26 -13zM82 350q0 -140 60 -230l367 485q-66 79 -174 79q-120 0 -186.5 -95t-66.5 -239zM335 16
q120 0 186.5 95t66.5 239q0 142 -61 231l-367 -485q66 -80 175 -80z" />
    <glyph glyph-name="Ugrave" unicode="&#xd9;" horiz-adv-x="682" 
d="M361 766h-31l-101 110h40zM92 253v447h34v-443q0 -125 53.5 -183t161.5 -58t161.5 58t53.5 183v443h34v-447q0 -135 -60.5 -200t-188.5 -65t-188.5 65t-60.5 200z" />
    <glyph glyph-name="Uacute" unicode="&#xda;" horiz-adv-x="682" 
d="M321 766l92 110h40l-101 -110h-31zM92 253v447h34v-443q0 -125 53.5 -183t161.5 -58t161.5 58t53.5 183v443h34v-447q0 -135 -60.5 -200t-188.5 -65t-188.5 65t-60.5 200z" />
    <glyph glyph-name="Ucircumflex" unicode="&#xdb;" horiz-adv-x="682" 
d="M464 770h-32l-91 95l-91 -95h-32l99 110h48zM92 253v447h34v-443q0 -125 53.5 -183t161.5 -58t161.5 58t53.5 183v443h34v-447q0 -135 -60.5 -200t-188.5 -65t-188.5 65t-60.5 200z" />
    <glyph glyph-name="Udieresis" unicode="&#xdc;" horiz-adv-x="682" 
d="M240 771v75h36v-75h-36zM406 771v75h36v-75h-36zM92 253v447h34v-443q0 -125 53.5 -183t161.5 -58t161.5 58t53.5 183v443h34v-447q0 -135 -60.5 -200t-188.5 -65t-188.5 65t-60.5 200z" />
    <glyph glyph-name="Yacute" unicode="&#xdd;" horiz-adv-x="614" 
d="M419 876l-101 -110h-31l92 110h40zM553 700h39l-268 -397v-303h-34v302l-268 398h41l244 -369z" />
    <glyph glyph-name="Thorn" unicode="&#xde;" horiz-adv-x="601" 
d="M340 561q93 0 154 -48.5t61 -141.5t-61 -141.5t-154 -48.5h-214v-181h-34v700h34v-139h214zM338 209q81 0 132 42t51 120t-51 120t-132 42h-212v-324h212z" />
    <glyph glyph-name="germandbls" unicode="&#xdf;" horiz-adv-x="527" 
d="M300 438q86 -8 137.5 -68t51.5 -162q0 -108 -58 -161t-149 -53q-24 0 -62 6v28q40 -6 60 -6q70 0 123.5 44.5t53.5 141.5q0 95 -53 154.5t-151 59.5h-37v28h41q77 0 116.5 38.5t39.5 104.5q0 71 -42.5 109t-111.5 38q-72 0 -110.5 -43.5t-38.5 -130.5v-566h-32v572
q0 194 181 194q85 0 135.5 -45t50.5 -125q0 -67 -38 -108t-107 -50z" />
    <glyph glyph-name="agrave" unicode="&#xe0;" horiz-adv-x="516" 
d="M282 598h-30l-89 136h36zM44 129q0 136 189 155l179 18v79q0 55 -38.5 92.5t-113.5 36.5q-69 0 -113.5 -33t-47.5 -98h-31q3 78 54 117.5t138 39.5q92 0 138 -42.5t46 -117.5v-376h-28v123q-21 -63 -76 -99t-134 -36q-83 0 -122.5 39t-39.5 102zM76 129q0 -50 33.5 -82.5
t103.5 -32.5q94 0 146.5 59.5t52.5 159.5v42l-176 -18q-160 -16 -160 -128z" />
    <glyph glyph-name="aacute" unicode="&#xe1;" horiz-adv-x="516" 
d="M230 598l83 136h36l-89 -136h-30zM44 129q0 136 189 155l179 18v79q0 55 -38.5 92.5t-113.5 36.5q-69 0 -113.5 -33t-47.5 -98h-31q3 78 54 117.5t138 39.5q92 0 138 -42.5t46 -117.5v-376h-28v123q-21 -63 -76 -99t-134 -36q-83 0 -122.5 39t-39.5 102zM76 129
q0 -50 33.5 -82.5t103.5 -32.5q94 0 146.5 59.5t52.5 159.5v42l-176 -18q-160 -16 -160 -128z" />
    <glyph glyph-name="acircumflex" unicode="&#xe2;" horiz-adv-x="516" 
d="M373 598h-32l-85 122l-85 -122h-32l93 136h48zM44 129q0 136 189 155l179 18v79q0 55 -38.5 92.5t-113.5 36.5q-69 0 -113.5 -33t-47.5 -98h-31q3 78 54 117.5t138 39.5q92 0 138 -42.5t46 -117.5v-376h-28v123q-21 -63 -76 -99t-134 -36q-83 0 -122.5 39t-39.5 102z
M76 129q0 -50 33.5 -82.5t103.5 -32.5q94 0 146.5 59.5t52.5 159.5v42l-176 -18q-160 -16 -160 -128z" />
    <glyph glyph-name="atilde" unicode="&#xe3;" horiz-adv-x="516" 
d="M363 691h28q0 -36 -18 -58.5t-52 -22.5q-31 0 -70 29.5t-60 29.5q-20 0 -31 -15t-11 -37h-28q0 35 18.5 58t52.5 23q30 0 69 -29.5t60 -29.5t31.5 14.5t10.5 37.5zM44 129q0 136 189 155l179 18v79q0 55 -38.5 92.5t-113.5 36.5q-69 0 -113.5 -33t-47.5 -98h-31
q3 78 54 117.5t138 39.5q92 0 138 -42.5t46 -117.5v-376h-28v123q-21 -63 -76 -99t-134 -36q-83 0 -122.5 39t-39.5 102zM76 129q0 -50 33.5 -82.5t103.5 -32.5q94 0 146.5 59.5t52.5 159.5v42l-176 -18q-160 -16 -160 -128z" />
    <glyph glyph-name="adieresis" unicode="&#xe4;" horiz-adv-x="516" 
d="M165 624v92h34v-92h-34zM313 624v92h34v-92h-34zM44 129q0 136 189 155l179 18v79q0 55 -38.5 92.5t-113.5 36.5q-69 0 -113.5 -33t-47.5 -98h-31q3 78 54 117.5t138 39.5q92 0 138 -42.5t46 -117.5v-376h-28v123q-21 -63 -76 -99t-134 -36q-83 0 -122.5 39t-39.5 102z
M76 129q0 -50 33.5 -82.5t103.5 -32.5q94 0 146.5 59.5t52.5 159.5v42l-176 -18q-160 -16 -160 -128z" />
    <glyph glyph-name="aring" unicode="&#xe5;" horiz-adv-x="516" 
d="M256 771q37 0 64.5 -22t27.5 -65t-27.5 -65t-64.5 -22t-64.5 22t-27.5 65t27.5 65t64.5 22zM256 622q27 0 45.5 17t18.5 45t-18.5 45t-45.5 17t-45.5 -17t-18.5 -45t18.5 -45t45.5 -17zM44 129q0 136 189 155l179 18v79q0 55 -38.5 92.5t-113.5 36.5q-69 0 -113.5 -33
t-47.5 -98h-31q3 78 54 117.5t138 39.5q92 0 138 -42.5t46 -117.5v-376h-28v123q-21 -63 -76 -99t-134 -36q-83 0 -122.5 39t-39.5 102zM76 129q0 -50 33.5 -82.5t103.5 -32.5q94 0 146.5 59.5t52.5 159.5v42l-176 -18q-160 -16 -160 -128z" />
    <glyph glyph-name="ae" unicode="&#xe6;" horiz-adv-x="869" 
d="M829 262v-8h-385q2 -112 54 -176t134 -64q57 0 100 33t60 85l29 -3q-19 -64 -68.5 -102.5t-120.5 -38.5q-76 0 -129.5 41t-75.5 119q-19 -73 -75.5 -116.5t-145.5 -43.5q-83 0 -122.5 39t-39.5 102q0 138 189 151l179 13v88q0 55 -38.5 92.5t-113.5 36.5
q-69 0 -113.5 -33t-47.5 -98h-31q3 78 54 117.5t138 39.5q162 0 179 -131q26 64 74.5 97.5t111.5 33.5q93 0 148.5 -70.5t55.5 -203.5zM444 280h353q-1 105 -48.5 167.5t-123.5 62.5t-126.5 -61t-54.5 -169zM412 233v33l-176 -13q-160 -12 -160 -124q0 -50 33.5 -82.5
t103.5 -32.5q94 0 146.5 59.5t52.5 159.5z" />
    <glyph glyph-name="ccedilla" unicode="&#xe7;" horiz-adv-x="496" 
d="M261 -12h-8l-28 -51q20 9 40 9q28 0 51 -18t23 -54t-24 -54.5t-55 -18.5t-53 15.5t-29 44.5l28 3q6 -39 54 -39q22 0 36.5 12t14.5 37t-14.5 37t-35.5 12q-19 0 -43 -11l-26 11l36 67q-87 11 -136.5 81.5t-49.5 190.5q0 132 58.5 203t158.5 71q77 0 131.5 -44.5
t67.5 -129.5l-29 -4q-12 74 -58.5 113t-111.5 39q-83 0 -134 -66t-51 -182t51.5 -182t135.5 -66q65 0 112 41t59 117l30 -4q-14 -86 -68 -133t-133 -47z" />
    <glyph glyph-name="egrave" unicode="&#xe8;" horiz-adv-x="514" 
d="M280 598h-30l-89 136h36zM42 262q0 132 61 203t159 71q100 0 156 -70t56 -204v-8h-400q2 -113 55 -176.5t140 -63.5q62 0 106.5 32.5t61.5 85.5l29 -3q-19 -65 -70 -103t-127 -38q-105 0 -166 70.5t-61 203.5zM74 280h368q-1 105 -50.5 167.5t-129.5 62.5t-132 -61
t-56 -169z" />
    <glyph glyph-name="eacute" unicode="&#xe9;" horiz-adv-x="514" 
d="M228 598l83 136h36l-89 -136h-30zM42 262q0 132 61 203t159 71q100 0 156 -70t56 -204v-8h-400q2 -113 55 -176.5t140 -63.5q62 0 106.5 32.5t61.5 85.5l29 -3q-19 -65 -70 -103t-127 -38q-105 0 -166 70.5t-61 203.5zM74 280h368q-1 105 -50.5 167.5t-129.5 62.5
t-132 -61t-56 -169z" />
    <glyph glyph-name="ecircumflex" unicode="&#xea;" horiz-adv-x="514" 
d="M371 598h-32l-85 122l-85 -122h-32l93 136h48zM42 262q0 132 61 203t159 71q100 0 156 -70t56 -204v-8h-400q2 -113 55 -176.5t140 -63.5q62 0 106.5 32.5t61.5 85.5l29 -3q-19 -65 -70 -103t-127 -38q-105 0 -166 70.5t-61 203.5zM74 280h368q-1 105 -50.5 167.5
t-129.5 62.5t-132 -61t-56 -169z" />
    <glyph glyph-name="edieresis" unicode="&#xeb;" horiz-adv-x="514" 
d="M163 624v92h34v-92h-34zM311 624v92h34v-92h-34zM42 262q0 132 61 203t159 71q100 0 156 -70t56 -204v-8h-400q2 -113 55 -176.5t140 -63.5q62 0 106.5 32.5t61.5 85.5l29 -3q-19 -65 -70 -103t-127 -38q-105 0 -166 70.5t-61 203.5zM74 280h368q-1 105 -50.5 167.5
t-129.5 62.5t-132 -61t-56 -169z" />
    <glyph glyph-name="igrave" unicode="&#xec;" horiz-adv-x="182" 
d="M108 598h-28l-71 136h34zM72 0v524h32v-524h-32z" />
    <glyph glyph-name="iacute" unicode="&#xed;" horiz-adv-x="188" 
d="M74 598l65 136h34l-71 -136h-28zM78 0v524h32v-524h-32z" />
    <glyph glyph-name="icircumflex" unicode="&#xee;" horiz-adv-x="200" 
d="M217 598h-32l-85 122l-85 -122h-32l93 136h48zM84 0v524h32v-524h-32z" />
    <glyph glyph-name="idieresis" unicode="&#xef;" horiz-adv-x="176" 
d="M12 624v92h32v-92h-32zM132 624v92h32v-92h-32zM72 0v524h32v-524h-32z" />
    <glyph glyph-name="eth" unicode="&#xf0;" horiz-adv-x="532" 
d="M327 671q159 -108 159 -367q0 -164 -60.5 -240t-161.5 -76q-99 0 -160.5 70t-61.5 192q0 121 61 191.5t158 70.5q74 0 126 -42t73 -117q-9 112 -46 184.5t-112 118.5l-135 -78l-11 19l124 72q-68 35 -172 58l7 27q118 -26 191 -70l111 64l11 -19zM264 14q88 0 139 63.5
t51 172.5t-51 172.5t-139 63.5q-87 0 -138.5 -63.5t-51.5 -172.5t51.5 -172.5t138.5 -63.5z" />
    <glyph glyph-name="ntilde" unicode="&#xf1;" horiz-adv-x="546" 
d="M379 691h28q0 -36 -18 -58.5t-52 -22.5q-31 0 -70 29.5t-60 29.5q-20 0 -31 -15t-11 -37h-28q0 35 18.5 58t52.5 23q30 0 69 -29.5t60 -29.5t31.5 14.5t10.5 37.5zM78 0v524h28v-112q20 58 69.5 91t122.5 33q84 0 130 -43t46 -133v-360h-32v349q0 161 -148 161
q-87 0 -135.5 -53.5t-48.5 -147.5v-309h-32z" />
    <glyph glyph-name="ograve" unicode="&#xf2;" horiz-adv-x="528" 
d="M290 598h-30l-89 136h36zM42 262q0 128 60.5 201t161.5 73t161.5 -73t60.5 -201t-60.5 -201t-161.5 -73t-161.5 73t-60.5 201zM74 262q0 -114 51.5 -181t138.5 -67t138.5 67t51.5 181t-51.5 181t-138.5 67t-138.5 -67t-51.5 -181z" />
    <glyph glyph-name="oacute" unicode="&#xf3;" horiz-adv-x="528" 
d="M238 598l83 136h36l-89 -136h-30zM42 262q0 128 60.5 201t161.5 73t161.5 -73t60.5 -201t-60.5 -201t-161.5 -73t-161.5 73t-60.5 201zM74 262q0 -114 51.5 -181t138.5 -67t138.5 67t51.5 181t-51.5 181t-138.5 67t-138.5 -67t-51.5 -181z" />
    <glyph glyph-name="ocircumflex" unicode="&#xf4;" horiz-adv-x="528" 
d="M381 598h-32l-85 122l-85 -122h-32l93 136h48zM42 262q0 128 60.5 201t161.5 73t161.5 -73t60.5 -201t-60.5 -201t-161.5 -73t-161.5 73t-60.5 201zM74 262q0 -114 51.5 -181t138.5 -67t138.5 67t51.5 181t-51.5 181t-138.5 67t-138.5 -67t-51.5 -181z" />
    <glyph glyph-name="otilde" unicode="&#xf5;" horiz-adv-x="528" 
d="M371 691h28q0 -36 -18 -58.5t-52 -22.5q-31 0 -70 29.5t-60 29.5q-20 0 -31 -15t-11 -37h-28q0 35 18.5 58t52.5 23q30 0 69 -29.5t60 -29.5t31.5 14.5t10.5 37.5zM42 262q0 128 60.5 201t161.5 73t161.5 -73t60.5 -201t-60.5 -201t-161.5 -73t-161.5 73t-60.5 201z
M74 262q0 -114 51.5 -181t138.5 -67t138.5 67t51.5 181t-51.5 181t-138.5 67t-138.5 -67t-51.5 -181z" />
    <glyph glyph-name="odieresis" unicode="&#xf6;" horiz-adv-x="528" 
d="M173 624v92h34v-92h-34zM321 624v92h34v-92h-34zM42 262q0 128 60.5 201t161.5 73t161.5 -73t60.5 -201t-60.5 -201t-161.5 -73t-161.5 73t-60.5 201zM74 262q0 -114 51.5 -181t138.5 -67t138.5 67t51.5 181t-51.5 181t-138.5 67t-138.5 -67t-51.5 -181z" />
    <glyph glyph-name="divide" unicode="&#xf7;" horiz-adv-x="492" 
d="M246 450q-12 0 -20 8t-8 20t8 20t20 8t20 -8t8 -20t-8 -20t-20 -8zM66 349h360v-26h-360v26zM246 166q-12 0 -20 8t-8 20t8 20t20 8t20 -8t8 -20t-8 -20t-20 -8z" />
    <glyph glyph-name="oslash" unicode="&#xf8;" horiz-adv-x="528" 
d="M430 458q56 -73 56 -196q0 -128 -60.5 -201t-161.5 -73q-90 0 -147 57l-47 -61l-23 14l51 68q-56 73 -56 196q0 128 60.5 201t161.5 73q90 0 147 -57l46 60l24 -13zM74 262q0 -104 44 -170l275 362q-51 56 -129 56q-87 0 -138.5 -67t-51.5 -181zM264 14q87 0 138.5 67
t51.5 181q0 104 -44 170l-275 -362q51 -56 129 -56z" />
    <glyph glyph-name="ugrave" unicode="&#xf9;" horiz-adv-x="546" 
d="M300 598h-30l-89 136h36zM436 524h32v-524h-28v119q-20 -61 -69 -96t-123 -35q-83 0 -129.5 44.5t-46.5 138.5v353h32v-344q0 -166 148 -166q86 0 135 58t49 153v299z" />
    <glyph glyph-name="uacute" unicode="&#xfa;" horiz-adv-x="546" 
d="M248 598l83 136h36l-89 -136h-30zM436 524h32v-524h-28v119q-20 -61 -69 -96t-123 -35q-83 0 -129.5 44.5t-46.5 138.5v353h32v-344q0 -166 148 -166q86 0 135 58t49 153v299z" />
    <glyph glyph-name="ucircumflex" unicode="&#xfb;" horiz-adv-x="546" 
d="M391 598h-32l-85 122l-85 -122h-32l93 136h48zM436 524h32v-524h-28v119q-20 -61 -69 -96t-123 -35q-83 0 -129.5 44.5t-46.5 138.5v353h32v-344q0 -166 148 -166q86 0 135 58t49 153v299z" />
    <glyph glyph-name="udieresis" unicode="&#xfc;" horiz-adv-x="546" 
d="M183 624v92h34v-92h-34zM331 624v92h34v-92h-34zM436 524h32v-524h-28v119q-20 -61 -69 -96t-123 -35q-83 0 -129.5 44.5t-46.5 138.5v353h32v-344q0 -166 148 -166q86 0 135 58t49 153v299z" />
    <glyph glyph-name="yacute" unicode="&#xfd;" horiz-adv-x="504" 
d="M345 734l-89 -136h-30l83 136h36zM444 524h36l-224 -606q-28 -78 -51 -104t-78 -26q-21 0 -42 3v25q26 -2 40 -2q39 0 59 23t44 90l26 73h-16l-214 524h36l203 -507z" />
    <glyph glyph-name="thorn" unicode="&#xfe;" horiz-adv-x="552" 
d="M78 -200v936h32v-331q23 60 72.5 95.5t116.5 35.5q96 0 153.5 -73t57.5 -201t-57.5 -201t-154.5 -73q-66 0 -115 35.5t-73 97.5v-321h-32zM108 262q0 -112 50 -180t135 -68t135 68t50 180t-50 180t-135 68t-135 -68t-50 -180z" />
    <glyph glyph-name="ydieresis" unicode="&#xff;" horiz-adv-x="504" 
d="M195 716v-92h-34v92h34zM343 716v-92h-34v92h34zM444 524h36l-224 -606q-28 -78 -51 -104t-78 -26q-21 0 -42 3v25q26 -2 40 -2q39 0 59 23t44 90l26 73h-16l-214 524h36l203 -507z" />
    <glyph glyph-name="Amacron" unicode="&#x100;" horiz-adv-x="631" 
d="M450 810v-26h-268v26h268zM568 0l-78 208h-350l-78 -208h-36l265 700h49l265 -700h-37zM315 676l-165 -440h330z" />
    <glyph glyph-name="amacron" unicode="&#x101;" horiz-adv-x="516" 
d="M132 647v26h248v-26h-248zM44 129q0 136 189 155l179 18v79q0 55 -38.5 92.5t-113.5 36.5q-69 0 -113.5 -33t-47.5 -98h-31q3 78 54 117.5t138 39.5q92 0 138 -42.5t46 -117.5v-376h-28v123q-21 -63 -76 -99t-134 -36q-83 0 -122.5 39t-39.5 102zM76 129
q0 -50 33.5 -82.5t103.5 -32.5q94 0 146.5 59.5t52.5 159.5v42l-176 -18q-160 -16 -160 -128z" />
    <glyph glyph-name="Abreve" unicode="&#x102;" horiz-adv-x="631" 
d="M316 762q-57 0 -88.5 30t-33.5 77h25q8 -81 97 -81t97 81h25q-2 -47 -33.5 -77t-88.5 -30zM568 0l-78 208h-350l-78 -208h-36l265 700h49l265 -700h-37zM315 676l-165 -440h330z" />
    <glyph glyph-name="abreve" unicode="&#x103;" horiz-adv-x="516" 
d="M348 725h25q-2 -57 -31.5 -90t-85.5 -33t-85.5 33t-31.5 90h25q8 -97 92 -97t92 97zM44 129q0 136 189 155l179 18v79q0 55 -38.5 92.5t-113.5 36.5q-69 0 -113.5 -33t-47.5 -98h-31q3 78 54 117.5t138 39.5q92 0 138 -42.5t46 -117.5v-376h-28v123q-21 -63 -76 -99
t-134 -36q-83 0 -122.5 39t-39.5 102zM76 129q0 -50 33.5 -82.5t103.5 -32.5q94 0 146.5 59.5t52.5 159.5v42l-176 -18q-160 -16 -160 -128z" />
    <glyph glyph-name="Aogonek" unicode="&#x104;" horiz-adv-x="631" 
d="M600 -106l24 -4q-13 -77 -83 -77q-30 0 -49 16.5t-19 50.5q0 41 27 67.5t77 52.5h-9l-78 208h-350l-78 -208h-36l265 700h49l265 -700q-50 -31 -76 -57t-26 -61q0 -44 41 -44q51 0 56 56zM315 676l-165 -440h330z" />
    <glyph glyph-name="aogonek" unicode="&#x105;" horiz-adv-x="516" 
d="M439 -106l24 -4q-13 -77 -83 -77q-30 0 -49 16.5t-19 50.5q0 41 27 67.5t77 52.5v123q-21 -63 -76 -99t-134 -36q-83 0 -122.5 39t-39.5 102q0 136 189 155l179 18v79q0 55 -38.5 92.5t-113.5 36.5q-69 0 -113.5 -33t-47.5 -98h-31q3 78 54 117.5t138 39.5
q92 0 138 -42.5t46 -117.5v-376q-50 -31 -76 -57t-26 -61q0 -44 41 -44q51 0 56 56zM412 233v42l-176 -18q-160 -16 -160 -128q0 -50 33.5 -82.5t103.5 -32.5q94 0 146.5 59.5t52.5 159.5z" />
    <glyph glyph-name="Cacute" unicode="&#x106;" horiz-adv-x="622" 
d="M291 766l92 110h40l-101 -110h-31zM48 350q0 159 70.5 260.5t205.5 101.5q103 0 173 -60.5t81 -161.5l-31 -4q-10 89 -72 143.5t-151 54.5q-116 0 -179 -96t-63 -238q0 -91 26 -165t83.5 -121.5t138.5 -47.5q95 0 153.5 59.5t67.5 151.5l31 -4q-11 -101 -76.5 -168
t-175.5 -67q-138 0 -210 99.5t-72 262.5z" />
    <glyph glyph-name="cacute" unicode="&#x107;" horiz-adv-x="496" 
d="M223 598l83 136h36l-89 -136h-30zM42 262q0 132 58.5 203t158.5 71q77 0 131.5 -44.5t67.5 -129.5l-29 -4q-12 74 -58.5 113t-111.5 39q-83 0 -134 -66t-51 -182t51.5 -182t135.5 -66q65 0 112 41t59 117l30 -4q-14 -86 -68 -133t-133 -47q-101 0 -160 71t-59 203z" />
    <glyph glyph-name="Cdotaccent" unicode="&#x10a;" horiz-adv-x="622" 
d="M292 771v78h38v-78h-38zM48 350q0 159 70.5 260.5t205.5 101.5q103 0 173 -60.5t81 -161.5l-31 -4q-10 89 -72 143.5t-151 54.5q-116 0 -179 -96t-63 -238q0 -91 26 -165t83.5 -121.5t138.5 -47.5q95 0 153.5 59.5t67.5 151.5l31 -4q-11 -101 -76.5 -168t-175.5 -67
q-138 0 -210 99.5t-72 262.5z" />
    <glyph glyph-name="cdotaccent" unicode="&#x10b;" horiz-adv-x="496" 
d="M232 624v92h34v-92h-34zM42 262q0 132 58.5 203t158.5 71q77 0 131.5 -44.5t67.5 -129.5l-29 -4q-12 74 -58.5 113t-111.5 39q-83 0 -134 -66t-51 -182t51.5 -182t135.5 -66q65 0 112 41t59 117l30 -4q-14 -86 -68 -133t-133 -47q-101 0 -160 71t-59 203z" />
    <glyph glyph-name="Ccaron" unicode="&#x10c;" horiz-adv-x="622" 
d="M402 877h32l-99 -110h-48l-99 110h32l91 -95zM48 350q0 159 70.5 260.5t205.5 101.5q103 0 173 -60.5t81 -161.5l-31 -4q-10 89 -72 143.5t-151 54.5q-116 0 -179 -96t-63 -238q0 -91 26 -165t83.5 -121.5t138.5 -47.5q95 0 153.5 59.5t67.5 151.5l31 -4
q-11 -101 -76.5 -168t-175.5 -67q-138 0 -210 99.5t-72 262.5z" />
    <glyph glyph-name="ccaron" unicode="&#x10d;" horiz-adv-x="496" 
d="M334 731h32l-93 -136h-48l-93 136h32l85 -122zM42 262q0 132 58.5 203t158.5 71q77 0 131.5 -44.5t67.5 -129.5l-29 -4q-12 74 -58.5 113t-111.5 39q-83 0 -134 -66t-51 -182t51.5 -182t135.5 -66q65 0 112 41t59 117l30 -4q-14 -86 -68 -133t-133 -47q-101 0 -160 71
t-59 203z" />
    <glyph glyph-name="Dcaron" unicode="&#x10e;" horiz-adv-x="650" 
d="M416 877h32l-99 -110h-48l-99 110h32l91 -95zM92 0v700h222q137 0 212.5 -92t75.5 -258t-75.5 -258t-212.5 -92h-222zM126 28h187q121 0 188 85.5t67 236.5t-67 236.5t-188 85.5h-187v-644z" />
    <glyph glyph-name="dcaron" unicode="&#x10f;" horiz-adv-x="552" 
d="M42 262q0 128 57.5 201t153.5 73q67 0 116.5 -35.5t72.5 -95.5v331h32v-736h-28v132q-22 -67 -72.5 -105.5t-119.5 -38.5q-97 0 -154.5 73t-57.5 201zM540 604v132h32v-37l-14 -95h-18zM74 262q0 -112 50 -180t135 -68t135 68t50 180t-50 180t-135 68t-135 -68t-50 -180z
" />
    <glyph glyph-name="Dcroat" unicode="&#x110;" horiz-adv-x="664" 
d="M328 700q137 0 212.5 -92t75.5 -258t-75.5 -258t-212.5 -92h-222v337h-72v26h72v337h222zM327 28q121 0 188 85.5t67 236.5t-67 236.5t-188 85.5h-187v-309h229v-26h-229v-309h187z" />
    <glyph glyph-name="dcroat" unicode="&#x111;" horiz-adv-x="552" 
d="M537 638v-26h-63v-612h-28v132q-22 -67 -72.5 -105.5t-119.5 -38.5q-97 0 -154.5 73t-57.5 201t57.5 201t153.5 73q67 0 116.5 -35.5t72.5 -95.5v207h-200v26h200v98h32v-98h63zM259 14q85 0 135 68t50 180t-50 180t-135 68t-135 -68t-50 -180t50 -180t135 -68z" />
    <glyph glyph-name="Emacron" unicode="&#x112;" horiz-adv-x="567" 
d="M153 784v26h268v-26h-268zM92 0v700h417v-28h-383v-302h307v-28h-307v-314h397v-28h-431z" />
    <glyph glyph-name="emacron" unicode="&#x113;" horiz-adv-x="514" 
d="M130 647v26h248v-26h-248zM42 262q0 132 61 203t159 71q100 0 156 -70t56 -204v-8h-400q2 -113 55 -176.5t140 -63.5q62 0 106.5 32.5t61.5 85.5l29 -3q-19 -65 -70 -103t-127 -38q-105 0 -166 70.5t-61 203.5zM74 280h368q-1 105 -50.5 167.5t-129.5 62.5t-132 -61
t-56 -169z" />
    <glyph glyph-name="Edotaccent" unicode="&#x116;" horiz-adv-x="567" 
d="M268 771v78h38v-78h-38zM92 0v700h417v-28h-383v-302h307v-28h-307v-314h397v-28h-431z" />
    <glyph glyph-name="edotaccent" unicode="&#x117;" horiz-adv-x="514" 
d="M237 624v92h34v-92h-34zM42 262q0 132 61 203t159 71q100 0 156 -70t56 -204v-8h-400q2 -113 55 -176.5t140 -63.5q62 0 106.5 32.5t61.5 85.5l29 -3q-19 -65 -70 -103t-127 -38q-105 0 -166 70.5t-61 203.5zM74 280h368q-1 105 -50.5 167.5t-129.5 62.5t-132 -61
t-56 -169z" />
    <glyph glyph-name="Eogonek" unicode="&#x118;" horiz-adv-x="567" 
d="M501 0q-50 -31 -76 -57t-26 -61q0 -44 41 -44q51 0 56 56l24 -4q-13 -77 -83 -77q-30 0 -49 16.5t-19 50.5q0 41 27 67.5t77 52.5h-381v700h417v-28h-383v-302h307v-28h-307v-314h397v-28h-22z" />
    <glyph glyph-name="eogonek" unicode="&#x119;" horiz-adv-x="514" 
d="M474 262v-8h-400q2 -113 55 -176.5t140 -63.5q62 0 106.5 32.5t61.5 85.5l29 -3q-24 -80 -90 -115q-74 -47 -98.5 -72.5t-24.5 -59.5q0 -44 41 -44q51 0 56 56l24 -4q-13 -77 -83 -77q-30 0 -49 16.5t-19 50.5q0 37 23 62.5t65 48.5q-21 -3 -42 -3q-105 0 -166 70.5
t-61 203.5q0 132 61 203t159 71q100 0 156 -70t56 -204zM74 280h368q-1 105 -50.5 167.5t-129.5 62.5t-132 -61t-56 -169z" />
    <glyph glyph-name="Ecaron" unicode="&#x11a;" horiz-adv-x="567" 
d="M378 877h32l-99 -110h-48l-99 110h32l91 -95zM92 0v700h417v-28h-383v-302h307v-28h-307v-314h397v-28h-431z" />
    <glyph glyph-name="ecaron" unicode="&#x11b;" horiz-adv-x="514" 
d="M339 731h32l-93 -136h-48l-93 136h32l85 -122zM42 262q0 132 61 203t159 71q100 0 156 -70t56 -204v-8h-400q2 -113 55 -176.5t140 -63.5q62 0 106.5 32.5t61.5 85.5l29 -3q-19 -65 -70 -103t-127 -38q-105 0 -166 70.5t-61 203.5zM74 280h368q-1 105 -50.5 167.5
t-129.5 62.5t-132 -61t-56 -169z" />
    <glyph glyph-name="Gbreve" unicode="&#x11e;" horiz-adv-x="632" 
d="M414 869h25q-2 -47 -33.5 -77t-88.5 -30t-88.5 30t-33.5 77h25q8 -81 97 -81t97 81zM48 350q0 103 29 183t93 129.5t155 49.5q100 0 168.5 -56t84.5 -151l-31 -5q-14 83 -75.5 133.5t-146.5 50.5q-117 0 -180 -96t-63 -238t71 -238t203 -96q104 0 196 52v244h-209v28h241
v-289q-112 -63 -230 -63q-77 0 -136 28t-96 78t-55.5 114.5t-18.5 141.5z" />
    <glyph glyph-name="gbreve" unicode="&#x11f;" horiz-adv-x="548" 
d="M364 725h25q-2 -57 -31.5 -90t-85.5 -33t-85.5 33t-31.5 90h25q8 -97 92 -97t92 97zM42 273q0 121 58.5 192t155.5 71q67 0 115.5 -35t70.5 -95v118h28v-515q0 -112 -47.5 -166.5t-154.5 -54.5q-90 0 -140 39t-53 118h30q3 -67 46.5 -99t116.5 -32q90 -1 130 47.5
t40 138.5v131q-51 -121 -181 -121q-97 0 -156 71t-59 192zM74 273q0 -105 50.5 -171t134.5 -66t134.5 66t50.5 171t-50.5 171t-134.5 66t-134.5 -66t-50.5 -171z" />
    <glyph glyph-name="Gdotaccent" unicode="&#x120;" horiz-adv-x="632" 
d="M298 771v78h38v-78h-38zM48 350q0 103 29 183t93 129.5t155 49.5q100 0 168.5 -56t84.5 -151l-31 -5q-14 83 -75.5 133.5t-146.5 50.5q-117 0 -180 -96t-63 -238t71 -238t203 -96q104 0 196 52v244h-209v28h241v-289q-112 -63 -230 -63q-77 0 -136 28t-96 78t-55.5 114.5
t-18.5 141.5z" />
    <glyph glyph-name="gdotaccent" unicode="&#x121;" horiz-adv-x="548" 
d="M255 624v92h34v-92h-34zM42 273q0 121 58.5 192t155.5 71q67 0 115.5 -35t70.5 -95v118h28v-515q0 -112 -47.5 -166.5t-154.5 -54.5q-90 0 -140 39t-53 118h30q3 -67 46.5 -99t116.5 -32q90 -1 130 47.5t40 138.5v131q-51 -121 -181 -121q-97 0 -156 71t-59 192zM74 273
q0 -105 50.5 -171t134.5 -66t134.5 66t50.5 171t-50.5 171t-134.5 66t-134.5 -66t-50.5 -171z" />
    <glyph glyph-name="Gcommaaccent" unicode="&#x122;" horiz-adv-x="632" 
d="M48 350q0 103 29 183t93 129.5t155 49.5q100 0 168.5 -56t84.5 -151l-31 -5q-14 83 -75.5 133.5t-146.5 50.5q-117 0 -180 -96t-63 -238t71 -238t203 -96q104 0 196 52v244h-209v28h241v-289q-112 -63 -230 -63q-77 0 -136 28t-96 78t-55.5 114.5t-18.5 141.5zM309 -194
v138h36v-37l-16 -101h-20z" />
    <glyph glyph-name="gcommaaccent" unicode="&#x123;" horiz-adv-x="548" 
d="M290 766v-138h-36v37l16 101h20zM42 273q0 121 58.5 192t155.5 71q67 0 115.5 -35t70.5 -95v118h28v-515q0 -112 -47.5 -166.5t-154.5 -54.5q-90 0 -140 39t-53 118h30q3 -67 46.5 -99t116.5 -32q90 -1 130 47.5t40 138.5v131q-51 -121 -181 -121q-97 0 -156 71t-59 192z
M74 273q0 -105 50.5 -171t134.5 -66t134.5 66t50.5 171t-50.5 171t-134.5 66t-134.5 -66t-50.5 -171z" />
    <glyph glyph-name="Hbar" unicode="&#x126;" horiz-adv-x="678" 
d="M658 559v-26h-72v-533h-34v342h-426v-342h-34v533h-72v26h72v141h34v-141h426v141h34v-141h72zM552 370v163h-426v-163h426z" />
    <glyph glyph-name="hbar" unicode="&#x127;" horiz-adv-x="548" 
d="M300 536q84 0 130 -43t46 -133v-360h-32v349q0 161 -148 161q-87 0 -135.5 -53.5t-48.5 -147.5v-309h-32v612h-65v26h65v98h32v-98h198v-26h-198v-189q21 53 69.5 83t118.5 30z" />
    <glyph glyph-name="Imacron" unicode="&#x12a;" horiz-adv-x="218" 
d="M-25 784v26h268v-26h-268zM92 0v700h34v-700h-34z" />
    <glyph glyph-name="imacron" unicode="&#x12b;" horiz-adv-x="188" 
d="M-10 647v26h208v-26h-208zM78 0v524h32v-524h-32z" />
    <glyph glyph-name="Iogonek" unicode="&#x12e;" horiz-adv-x="218" 
d="M136 -106l24 -4q-13 -77 -83 -77q-31 0 -49.5 17.5t-18.5 53.5q0 70 89 116h-6v700h34v-700q-44 -27 -65.5 -53.5t-21.5 -61.5q0 -47 41 -47q51 0 56 56z" />
    <glyph glyph-name="iogonek" unicode="&#x12f;" horiz-adv-x="188" 
d="M111 716v-92h-34v92h34zM120 -106l24 -4q-13 -77 -83 -77q-31 0 -49.5 17.5t-18.5 53.5q0 70 89 116h-4v524h32v-524q-44 -27 -65.5 -53.5t-21.5 -61.5q0 -47 41 -47q51 0 56 56z" />
    <glyph glyph-name="Idotaccent" unicode="&#x130;" horiz-adv-x="218" 
d="M90 771v78h38v-78h-38zM92 0v700h34v-700h-34z" />
    <glyph glyph-name="dotlessi" unicode="&#x131;" horiz-adv-x="200" 
d="M84 0v524h32v-524h-32z" />
    <glyph glyph-name="Kcommaaccent" unicode="&#x136;" horiz-adv-x="632" 
d="M310 358l292 -358h-41l-278 342h-157v-342h-34v700h34v-330h159l261 330h38zM291 -194v138h36v-37l-16 -101h-20z" />
    <glyph glyph-name="kcommaaccent" unicode="&#x137;" horiz-adv-x="507" 
d="M237 268l256 -268h-43l-241 254h-99v-254h-32v736h32v-456h100l229 244h43zM237 -194v138h36v-37l-16 -101h-20z" />
    <glyph glyph-name="Lacute" unicode="&#x139;" horiz-adv-x="508" 
d="M92 766l92 110h40l-101 -110h-31zM92 0v700h34v-672h346v-28h-380z" />
    <glyph glyph-name="lacute" unicode="&#x13a;" horiz-adv-x="188" 
d="M74 802l92 110h40l-101 -110h-31zM78 736h32v-736h-32v736z" />
    <glyph glyph-name="Lcommaaccent" unicode="&#x13b;" horiz-adv-x="508" 
d="M92 0v700h34v-672h346v-28h-380zM235 -194v138h36v-37l-16 -101h-20z" />
    <glyph glyph-name="lcommaaccent" unicode="&#x13c;" horiz-adv-x="188" 
d="M78 736h32v-736h-32v736zM76 -194v138h36v-37l-16 -101h-20z" />
    <glyph glyph-name="Lcaron" unicode="&#x13d;" horiz-adv-x="508" 
d="M92 0v700h34v-672h346v-28h-380zM240 568v132h32v-37l-14 -95h-18z" />
    <glyph glyph-name="lcaron" unicode="&#x13e;" horiz-adv-x="188" 
d="M78 736h32v-736h-32v736zM176 604v132h32v-37l-14 -95h-18z" />
    <glyph glyph-name="Ldot" unicode="&#x13f;" horiz-adv-x="508" 
d="M92 0v700h34v-672h346v-28h-380zM286 324v72h46v-72h-46z" />
    <glyph glyph-name="ldot" unicode="&#x140;" horiz-adv-x="239" 
d="M78 736h32v-736h-32v736zM185 274v72h46v-72h-46z" />
    <glyph glyph-name="Lslash" unicode="&#x141;" horiz-adv-x="536" 
d="M154 28h346v-28h-380v303l-88 -36v27l88 36v370h34v-355l192 79v-27l-192 -79v-290z" />
    <glyph glyph-name="lslash" unicode="&#x142;" horiz-adv-x="210" 
d="M172 450v-34l-51 -49v-367h-32v335l-51 -49v34l51 49v367h32v-335z" />
    <glyph glyph-name="Nacute" unicode="&#x143;" horiz-adv-x="684" 
d="M454 876l-101 -110h-31l92 110h40zM558 700h34v-700h-58l-408 677v-677h-34v700h58l408 -677v677z" />
    <glyph glyph-name="nacute" unicode="&#x144;" horiz-adv-x="546" 
d="M246 598l83 136h36l-89 -136h-30zM78 0v524h28v-112q20 58 69.5 91t122.5 33q84 0 130 -43t46 -133v-360h-32v349q0 161 -148 161q-87 0 -135.5 -53.5t-48.5 -147.5v-309h-32z" />
    <glyph glyph-name="Ncommaaccent" unicode="&#x145;" horiz-adv-x="684" 
d="M558 700h34v-700h-58l-408 677v-677h-34v700h58l408 -677v677zM324 -194v138h36v-37l-16 -101h-20z" />
    <glyph glyph-name="ncommaaccent" unicode="&#x146;" horiz-adv-x="546" 
d="M78 0v524h28v-112q20 58 69.5 91t122.5 33q84 0 130 -43t46 -133v-360h-32v349q0 161 -148 161q-87 0 -135.5 -53.5t-48.5 -147.5v-309h-32zM254 -194v138h36v-37l-16 -101h-20z" />
    <glyph glyph-name="Ncaron" unicode="&#x147;" horiz-adv-x="684" 
d="M366 767h-48l-99 110h32l91 -95l91 95h32zM558 700h34v-700h-58l-408 677v-677h-34v700h58l408 -677v677z" />
    <glyph glyph-name="ncaron" unicode="&#x148;" horiz-adv-x="546" 
d="M357 731h32l-93 -136h-48l-93 136h32l85 -122zM78 0v524h28v-112q20 58 69.5 91t122.5 33q84 0 130 -43t46 -133v-360h-32v349q0 161 -148 161q-87 0 -135.5 -53.5t-48.5 -147.5v-309h-32z" />
    <glyph glyph-name="Eng" unicode="&#x14a;" horiz-adv-x="684" 
d="M558 700h34v-754q0 -158 -163 -158q-23 0 -55 4v27q23 -3 43 -3q65 0 103 29.5t38 107.5v47h-24l-408 677v-677h-34v700h58l408 -677v677z" />
    <glyph glyph-name="eng" unicode="&#x14b;" horiz-adv-x="546" 
d="M78 0v524h28v-112q20 58 69.5 91t122.5 33q84 0 130 -43t46 -133v-477q0 -52 -21 -73.5t-66 -21.5q-19 0 -51 4v25q23 -3 41 -3q36 0 50.5 16t14.5 63v456q0 161 -148 161q-87 0 -135.5 -53.5t-48.5 -147.5v-309h-32z" />
    <glyph glyph-name="Omacron" unicode="&#x14c;" horiz-adv-x="670" 
d="M201 784v26h268v-26h-268zM48 350q0 156 74.5 259t212.5 103t212.5 -103t74.5 -259t-74.5 -259t-212.5 -103t-212.5 103t-74.5 259zM82 350q0 -144 66.5 -239t186.5 -95t186.5 95t66.5 239t-66.5 239t-186.5 95t-186.5 -95t-66.5 -239z" />
    <glyph glyph-name="omacron" unicode="&#x14d;" horiz-adv-x="528" 
d="M140 647v26h248v-26h-248zM42 262q0 128 60.5 201t161.5 73t161.5 -73t60.5 -201t-60.5 -201t-161.5 -73t-161.5 73t-60.5 201zM74 262q0 -114 51.5 -181t138.5 -67t138.5 67t51.5 181t-51.5 181t-138.5 67t-138.5 -67t-51.5 -181z" />
    <glyph glyph-name="Ohungarumlaut" unicode="&#x150;" horiz-adv-x="670" 
d="M239 766l83 110h37l-88 -110h-32zM369 766l83 110h37l-88 -110h-32zM48 350q0 156 74.5 259t212.5 103t212.5 -103t74.5 -259t-74.5 -259t-212.5 -103t-212.5 103t-74.5 259zM82 350q0 -144 66.5 -239t186.5 -95t186.5 95t66.5 239t-66.5 239t-186.5 95t-186.5 -95
t-66.5 -239z" />
    <glyph glyph-name="ohungarumlaut" unicode="&#x151;" horiz-adv-x="528" 
d="M176 598l77 136h32l-80 -136h-29zM295 598l77 136h32l-80 -136h-29zM42 262q0 128 60.5 201t161.5 73t161.5 -73t60.5 -201t-60.5 -201t-161.5 -73t-161.5 73t-60.5 201zM74 262q0 -114 51.5 -181t138.5 -67t138.5 67t51.5 181t-51.5 181t-138.5 67t-138.5 -67
t-51.5 -181z" />
    <glyph glyph-name="OE" unicode="&#x152;" horiz-adv-x="971" 
d="M48 350q0 166 75.5 258t212.5 92h577v-28h-383v-302h307v-28h-307v-314h397v-28h-591q-137 0 -212.5 92t-75.5 258zM82 350q0 -151 67 -236.5t188 -85.5h159v644h-159q-121 0 -188 -85.5t-67 -236.5z" />
    <glyph glyph-name="oe" unicode="&#x153;" horiz-adv-x="926" 
d="M886 262v-8h-400q2 -113 55 -176.5t140 -63.5q62 0 106.5 32.5t61.5 85.5l29 -3q-19 -65 -70 -103t-127 -38q-80 0 -134.5 42.5t-76.5 124.5q-22 -80 -75.5 -123.5t-130.5 -43.5q-101 0 -161.5 73t-60.5 201t60.5 201t161.5 73q77 0 130.5 -43.5t75.5 -122.5
q22 81 76 123.5t128 42.5q100 0 156 -70t56 -204zM264 14q87 0 138.5 67t51.5 181t-51.5 181t-138.5 67t-138.5 -67t-51.5 -181t51.5 -181t138.5 -67zM486 280h368q-1 105 -50.5 167.5t-129.5 62.5t-132 -61t-56 -169z" />
    <glyph glyph-name="Racute" unicode="&#x154;" horiz-adv-x="623" 
d="M422 876l-101 -110h-31l92 110h40zM587 0h-43l-229 308h-189v-308h-34v700h255q93 0 154 -49.5t61 -146.5q0 -96 -59 -145t-150 -51zM126 672v-336h219q81 0 132 43t51 125t-51 125t-132 43h-219z" />
    <glyph glyph-name="racute" unicode="&#x155;" horiz-adv-x="358" 
d="M164 598l83 136h36l-89 -136h-30zM268 532q29 0 56 -4v-33q-29 4 -57 4q-156 0 -156 -215v-284h-33l1 524h28v-116q18 60 59.5 92t101.5 32z" />
    <glyph glyph-name="Rcommaaccent" unicode="&#x156;" horiz-adv-x="623" 
d="M353 308l234 -308h-43l-229 308h-189v-308h-34v700h255q93 0 154 -49.5t61 -146.5q0 -96 -59 -145t-150 -51zM126 672v-336h219q81 0 132 43t51 125t-51 125t-132 43h-219zM292 -194v138h36v-37l-16 -101h-20z" />
    <glyph glyph-name="rcommaaccent" unicode="&#x157;" horiz-adv-x="358" 
d="M268 532q29 0 56 -4v-33q-29 4 -57 4q-156 0 -156 -215v-284h-33l1 524h28v-116q18 60 59.5 92t101.5 32zM77 -194v138h36v-37l-16 -101h-20z" />
    <glyph glyph-name="Rcaron" unicode="&#x158;" horiz-adv-x="623" 
d="M334 767h-48l-99 110h32l91 -95l91 95h32zM587 0h-43l-229 308h-189v-308h-34v700h255q93 0 154 -49.5t61 -146.5q0 -96 -59 -145t-150 -51zM126 672v-336h219q81 0 132 43t51 125t-51 125t-132 43h-219z" />
    <glyph glyph-name="rcaron" unicode="&#x159;" horiz-adv-x="358" 
d="M275 731h32l-93 -136h-48l-93 136h32l85 -122zM268 532q29 0 56 -4v-33q-29 4 -57 4q-156 0 -156 -215v-284h-33l1 524h28v-116q18 60 59.5 92t101.5 32z" />
    <glyph glyph-name="Sacute" unicode="&#x15a;" horiz-adv-x="566" 
d="M262 766l92 110h40l-101 -110h-31zM38 198l32 2q3 -89 59.5 -136.5t157.5 -47.5q88 0 143.5 36.5t55.5 115.5q0 53 -31 88.5t-102 58.5l-142 45q-149 47 -149 178q0 86 58.5 130t150.5 44q100 0 161.5 -49.5t68.5 -137.5l-31 -3q-4 75 -58.5 118.5t-140.5 43.5
q-79 0 -127 -38t-48 -108q0 -108 128 -148l142 -44q80 -25 117 -68t37 -110q0 -88 -61.5 -134t-171.5 -46q-116 0 -180 55t-69 155z" />
    <glyph glyph-name="sacute" unicode="&#x15b;" horiz-adv-x="456" 
d="M200 598l83 136h36l-89 -136h-30zM30 138l30 2q5 -64 49 -95t117 -31t116.5 30t43.5 83q0 39 -27.5 64.5t-90.5 45.5l-109 35q-114 37 -114 135q0 64 43.5 96.5t123.5 32.5q86 0 137 -36.5t58 -107.5l-30 -2q-6 59 -51.5 89.5t-113.5 30.5q-60 2 -97.5 -25.5t-37.5 -77.5
q0 -75 100 -108l109 -35q68 -22 100 -54t32 -83q0 -64 -48 -101.5t-144 -37.5q-184 0 -196 150z" />
    <glyph glyph-name="Scedilla" unicode="&#x15e;" horiz-adv-x="566" 
d="M287 -12h-1l-28 -51q20 9 40 9q28 0 51 -18t23 -54t-24 -54.5t-55 -18.5t-53 15.5t-29 44.5l28 3q7 -39 54 -39q22 0 36.5 12t14.5 37t-14.5 37t-35.5 12q-19 0 -43 -11l-26 11l35 66q-104 6 -160.5 60.5t-61.5 148.5l32 2q3 -89 59.5 -136.5t157.5 -47.5
q88 0 143.5 36.5t55.5 115.5q0 53 -31 88.5t-102 58.5l-142 45q-149 47 -149 178q0 86 58.5 130t150.5 44q100 0 161.5 -49.5t68.5 -137.5l-31 -3q-4 75 -58.5 118.5t-140.5 43.5q-79 0 -127 -38t-48 -108q0 -108 128 -148l142 -44q80 -25 117 -68t37 -110q0 -88 -61.5 -134
t-171.5 -46z" />
    <glyph glyph-name="scedilla" unicode="&#x15f;" horiz-adv-x="456" 
d="M418 127q0 -63 -47 -100.5t-141 -38.5l-28 -51q20 9 40 9q28 0 51 -18t23 -54t-24 -54.5t-55 -18.5t-53 15.5t-29 44.5l28 3q7 -39 54 -39q22 0 36.5 12t14.5 37t-14.5 37t-35.5 12q-19 0 -43 -11l-26 11l35 66q-163 9 -174 149l30 2q5 -64 49 -95t117 -31t116.5 30
t43.5 83q0 39 -27.5 64.5t-90.5 45.5l-109 35q-114 37 -114 135q0 64 43.5 96.5t123.5 32.5q86 0 137 -36.5t58 -107.5l-30 -2q-6 59 -51.5 89.5t-113.5 30.5q-60 2 -97.5 -25.5t-37.5 -77.5q0 -75 100 -108l109 -35q68 -22 100 -54t32 -83z" />
    <glyph glyph-name="Scaron" unicode="&#x160;" horiz-adv-x="566" 
d="M373 877h32l-99 -110h-48l-99 110h32l91 -95zM38 198l32 2q3 -89 59.5 -136.5t157.5 -47.5q88 0 143.5 36.5t55.5 115.5q0 53 -31 88.5t-102 58.5l-142 45q-149 47 -149 178q0 86 58.5 130t150.5 44q100 0 161.5 -49.5t68.5 -137.5l-31 -3q-4 75 -58.5 118.5t-140.5 43.5
q-79 0 -127 -38t-48 -108q0 -108 128 -148l142 -44q80 -25 117 -68t37 -110q0 -88 -61.5 -134t-171.5 -46q-116 0 -180 55t-69 155z" />
    <glyph glyph-name="scaron" unicode="&#x161;" horiz-adv-x="456" 
d="M311 731h32l-93 -136h-48l-93 136h32l85 -122zM30 138l30 2q5 -64 49 -95t117 -31t116.5 30t43.5 83q0 39 -27.5 64.5t-90.5 45.5l-109 35q-114 37 -114 135q0 64 43.5 96.5t123.5 32.5q86 0 137 -36.5t58 -107.5l-30 -2q-6 59 -51.5 89.5t-113.5 30.5q-60 2 -97.5 -25.5
t-37.5 -77.5q0 -75 100 -108l109 -35q68 -22 100 -54t32 -83q0 -64 -48 -101.5t-144 -37.5q-184 0 -196 150z" />
    <glyph glyph-name="uni0162" unicode="&#x162;" horiz-adv-x="536" 
d="M285 0h-3l-35 -63q20 9 40 9q28 0 51 -18t23 -54t-24 -54.5t-55 -18.5t-53 15.5t-29 44.5l28 3q6 -39 54 -39q22 0 36.5 12t14.5 37t-14.5 37t-35.5 12q-19 0 -43 -11l-26 11l41 77h-4v672h-223v28h480v-28h-223v-672z" />
    <glyph glyph-name="uni0163" unicode="&#x163;" horiz-adv-x="331" 
d="M229 -54q28 0 51 -18t23 -54t-24 -54.5t-55 -18.5t-53 15.5t-29 44.5l28 3q6 -39 54 -39q22 0 36.5 12t14.5 37t-14.5 37t-35.5 12q-19 0 -43 -11l-26 11l39 72q-38 8 -51 35.5t-13 84.5v383h-111v24h90q25 0 25 27v85h28v-110h132v-26h-132v-377q0 -60 14.5 -81.5
t56.5 -21.5q24 0 61 5v-25q-33 -6 -63 -6h-12l-31 -55q20 9 40 9z" />
    <glyph glyph-name="Tcaron" unicode="&#x164;" horiz-adv-x="536" 
d="M359 877h32l-99 -110h-48l-99 110h32l91 -95zM28 672v28h480v-28h-223v-672h-34v672h-223z" />
    <glyph glyph-name="tcaron" unicode="&#x165;" horiz-adv-x="329" 
d="M234 604v132h32v-37l-14 -95h-18zM295 498h-132v-377q0 -60 14.5 -81.5t56.5 -21.5q24 0 61 5v-25q-33 -6 -63 -6q-61 0 -81 27.5t-20 95.5v383h-111v24h90q25 0 25 27v85h28v-110h132v-26z" />
    <glyph glyph-name="Tbar" unicode="&#x166;" horiz-adv-x="536" 
d="M508 672h-223v-259h153v-26h-153v-387h-34v387h-153v26h153v259h-223v28h480v-28z" />
    <glyph glyph-name="tbar" unicode="&#x167;" horiz-adv-x="331" 
d="M295 498h-132v-188h132v-26h-132v-163q0 -60 14.5 -81.5t56.5 -21.5q24 0 61 5v-25q-33 -6 -63 -6q-61 0 -81 27.5t-20 95.5v169h-101v26h101v188h-111v24h90q25 0 25 27v85h28v-110h132v-26z" />
    <glyph glyph-name="Umacron" unicode="&#x16a;" horiz-adv-x="682" 
d="M207 784v26h268v-26h-268zM92 253v447h34v-443q0 -125 53.5 -183t161.5 -58t161.5 58t53.5 183v443h34v-447q0 -135 -60.5 -200t-188.5 -65t-188.5 65t-60.5 200z" />
    <glyph glyph-name="umacron" unicode="&#x16b;" horiz-adv-x="546" 
d="M150 647v26h248v-26h-248zM436 524h32v-524h-28v119q-20 -61 -69 -96t-123 -35q-83 0 -129.5 44.5t-46.5 138.5v353h32v-344q0 -166 148 -166q86 0 135 58t49 153v299z" />
    <glyph glyph-name="Uring" unicode="&#x16e;" horiz-adv-x="682" 
d="M341 920q36 0 64 -21.5t28 -63.5t-28 -63.5t-64 -21.5t-64 21.5t-28 63.5t28 63.5t64 21.5zM341 775q26 0 45 16.5t19 43.5t-19 43.5t-45 16.5t-45 -16.5t-19 -43.5t19 -43.5t45 -16.5zM92 253v447h34v-443q0 -125 53.5 -183t161.5 -58t161.5 58t53.5 183v443h34v-447
q0 -135 -60.5 -200t-188.5 -65t-188.5 65t-60.5 200z" />
    <glyph glyph-name="uring" unicode="&#x16f;" horiz-adv-x="546" 
d="M274 771q37 0 64.5 -22t27.5 -65t-27.5 -65t-64.5 -22t-64.5 22t-27.5 65t27.5 65t64.5 22zM274 622q27 0 45.5 17t18.5 45t-18.5 45t-45.5 17t-45.5 -17t-18.5 -45t18.5 -45t45.5 -17zM436 524h32v-524h-28v119q-20 -61 -69 -96t-123 -35q-83 0 -129.5 44.5t-46.5 138.5
v353h32v-344q0 -166 148 -166q86 0 135 58t49 153v299z" />
    <glyph glyph-name="Uhungarumlaut" unicode="&#x170;" horiz-adv-x="682" 
d="M245 766l83 110h37l-88 -110h-32zM375 766l83 110h37l-88 -110h-32zM92 253v447h34v-443q0 -125 53.5 -183t161.5 -58t161.5 58t53.5 183v443h34v-447q0 -135 -60.5 -200t-188.5 -65t-188.5 65t-60.5 200z" />
    <glyph glyph-name="uhungarumlaut" unicode="&#x171;" horiz-adv-x="546" 
d="M186 598l77 136h32l-80 -136h-29zM305 598l77 136h32l-80 -136h-29zM436 524h32v-524h-28v119q-20 -61 -69 -96t-123 -35q-83 0 -129.5 44.5t-46.5 138.5v353h32v-344q0 -166 148 -166q86 0 135 58t49 153v299z" />
    <glyph glyph-name="Uogonek" unicode="&#x172;" horiz-adv-x="682" 
d="M556 700h34v-447q0 -213 -155 -254q-50 -31 -75 -56.5t-25 -60.5q0 -44 41 -44q51 0 56 56l24 -4q-13 -77 -83 -77q-30 0 -49 16.5t-19 50.5q0 37 23 62.5t64 48.5q-24 -3 -51 -3q-128 0 -188.5 65t-60.5 200v447h34v-443q0 -125 53.5 -183t161.5 -58t161.5 58t53.5 183
v443z" />
    <glyph glyph-name="uogonek" unicode="&#x173;" horiz-adv-x="546" 
d="M463 -106l24 -4q-13 -77 -83 -77q-30 0 -49 16.5t-19 50.5q0 41 27 67.5t77 52.5v119q-20 -61 -69 -96t-123 -35q-83 0 -129.5 44.5t-46.5 138.5v353h32v-344q0 -166 148 -166q86 0 135 58t49 153v299h32v-524q-50 -31 -76 -57t-26 -61q0 -44 41 -44q51 0 56 56z" />
    <glyph glyph-name="Wcircumflex" unicode="&#x174;" horiz-adv-x="923" 
d="M462 865l-91 -95h-32l99 110h48l99 -110h-32zM854 700h37l-199 -700h-52l-179 676l-179 -676h-52l-198 700h38l186 -673l180 673h52l179 -673z" />
    <glyph glyph-name="wcircumflex" unicode="&#x175;" horiz-adv-x="806" 
d="M403 720l-85 -122h-32l93 136h48l93 -136h-32zM742 524h36l-176 -524h-46l-152 502l-153 -502h-48l-175 524h37l162 -500l154 500h47l152 -497z" />
    <glyph glyph-name="Ycircumflex" unicode="&#x176;" horiz-adv-x="614" 
d="M307 865l-91 -95h-32l99 110h48l99 -110h-32zM553 700h39l-268 -397v-303h-34v302l-268 398h41l244 -369z" />
    <glyph glyph-name="ycircumflex" unicode="&#x177;" horiz-adv-x="504" 
d="M252 720l-85 -122h-32l93 136h48l93 -136h-32zM444 524h36l-224 -606q-28 -78 -51 -104t-78 -26q-21 0 -42 3v25q26 -2 40 -2q39 0 59 23t44 90l26 73h-16l-214 524h36l203 -507z" />
    <glyph glyph-name="Ydieresis" unicode="&#x178;" horiz-adv-x="614" 
d="M242 846v-75h-36v75h36zM408 846v-75h-36v75h36zM553 700h39l-268 -397v-303h-34v302l-268 398h41l244 -369z" />
    <glyph glyph-name="Zacute" unicode="&#x179;" horiz-adv-x="533" 
d="M378 876l-101 -110h-31l92 110h40zM67 28h434v-28h-477v24l427 648h-407v28h449v-24z" />
    <glyph glyph-name="zacute" unicode="&#x17a;" horiz-adv-x="438" 
d="M193 598l83 136h36l-89 -136h-30zM66 26h342v-26h-382v23l337 475h-318v26h358v-23z" />
    <glyph glyph-name="Zdotaccent" unicode="&#x17b;" horiz-adv-x="533" 
d="M285 849v-78h-38v78h38zM67 28h434v-28h-477v24l427 648h-407v28h449v-24z" />
    <glyph glyph-name="zdotaccent" unicode="&#x17c;" horiz-adv-x="438" 
d="M202 624v92h34v-92h-34zM66 26h342v-26h-382v23l337 475h-318v26h358v-23z" />
    <glyph glyph-name="Zcaron" unicode="&#x17d;" horiz-adv-x="533" 
d="M290 767h-48l-99 110h32l91 -95l91 95h32zM67 28h434v-28h-477v24l427 648h-407v28h449v-24z" />
    <glyph glyph-name="zcaron" unicode="&#x17e;" horiz-adv-x="438" 
d="M304 731h32l-93 -136h-48l-93 136h32l85 -122zM66 26h342v-26h-382v23l337 475h-318v26h358v-23z" />
    <glyph glyph-name="Scommaaccent" unicode="&#x218;" horiz-adv-x="566" 
d="M38 198l32 2q3 -89 59.5 -136.5t157.5 -47.5q88 0 143.5 36.5t55.5 115.5q0 53 -31 88.5t-102 58.5l-142 45q-149 47 -149 178q0 86 58.5 130t150.5 44q100 0 161.5 -49.5t68.5 -137.5l-31 -3q-4 75 -58.5 118.5t-140.5 43.5q-79 0 -127 -38t-48 -108q0 -108 128 -148
l142 -44q80 -25 117 -68t37 -110q0 -88 -61.5 -134t-171.5 -46q-116 0 -180 55t-69 155zM264 -194v138h36v-37l-16 -101h-20z" />
    <glyph glyph-name="scommaaccent" unicode="&#x219;" horiz-adv-x="456" 
d="M30 138l30 2q5 -64 49 -95t117 -31t116.5 30t43.5 83q0 39 -27.5 64.5t-90.5 45.5l-109 35q-114 37 -114 135q0 64 43.5 96.5t123.5 32.5q86 0 137 -36.5t58 -107.5l-30 -2q-6 59 -51.5 89.5t-113.5 30.5q-60 2 -97.5 -25.5t-37.5 -77.5q0 -75 100 -108l109 -35
q68 -22 100 -54t32 -83q0 -64 -48 -101.5t-144 -37.5q-184 0 -196 150zM208 -194v138h36v-37l-16 -101h-20z" />
    <glyph glyph-name="uni021A" unicode="&#x21a;" horiz-adv-x="536" 
d="M28 672v28h480v-28h-223v-672h-34v672h-223zM250 -194v138h36v-37l-16 -101h-20z" />
    <glyph glyph-name="uni021B" unicode="&#x21b;" horiz-adv-x="331" 
d="M295 498h-132v-377q0 -60 14.5 -81.5t56.5 -21.5q24 0 61 5v-25q-33 -6 -63 -6q-61 0 -81 27.5t-20 95.5v383h-111v24h90q25 0 25 27v85h28v-110h132v-26zM195 -194v138h36v-37l-16 -101h-20z" />
    <glyph glyph-name="circumflex" unicode="&#x2c6;" horiz-adv-x="314" 
d="M40 598l93 136h48l93 -136h-32l-85 122l-85 -122h-32z" />
    <glyph glyph-name="caron" unicode="&#x2c7;" horiz-adv-x="314" 
d="M40 731h32l85 -122l85 122h32l-93 -136h-48z" />
    <glyph glyph-name="breve" unicode="&#x2d8;" horiz-adv-x="314" 
d="M40 725h25q8 -97 92 -97t92 97h25q-2 -57 -31.5 -90t-85.5 -33t-85.5 33t-31.5 90z" />
    <glyph glyph-name="dotaccent" unicode="&#x2d9;" horiz-adv-x="114" 
d="M40 624v92h34v-92h-34z" />
    <glyph glyph-name="ring" unicode="&#x2da;" horiz-adv-x="264" 
d="M40 684q0 43 27.5 65t64.5 22t64.5 -22t27.5 -65t-27.5 -65t-64.5 -22t-64.5 22t-27.5 65zM68 684q0 -28 18.5 -45t45.5 -17t45.5 17t18.5 45t-18.5 45t-45.5 17t-45.5 -17t-18.5 -45z" />
    <glyph glyph-name="ogonek" unicode="&#x2db;" horiz-adv-x="231" 
d="M40 -120q0 41 27 67.5t77 52.5h28q-50 -31 -76 -57t-26 -61q0 -44 41 -44q51 0 56 56l24 -4q-13 -77 -83 -77q-30 0 -49 16.5t-19 50.5z" />
    <glyph glyph-name="tilde" unicode="&#x2dc;" horiz-adv-x="350" 
d="M40 617q0 35 18.5 58t52.5 23q31 0 69 -29.5t60 -29.5q21 0 31.5 14.5t10.5 37.5h28q0 -36 -18 -58.5t-52 -22.5q-31 0 -70 29.5t-60 29.5q-20 0 -31 -15t-11 -37h-28z" />
    <glyph glyph-name="hungarumlaut" unicode="&#x2dd;" horiz-adv-x="308" 
d="M40 598l77 136h32l-80 -136h-29zM159 598l77 136h32l-80 -136h-29z" />
    <glyph glyph-name="pi" unicode="&#x3c0;" horiz-adv-x="562" 
d="M489 20q13 0 31 3v-25q-26 -4 -41 -4q-70 0 -70 85v420h-260v-499h-32v499h-84v25h486v-25h-80v-410q0 -43 13.5 -56t36.5 -13z" />
    <glyph glyph-name="uni0401" unicode="&#x401;" horiz-adv-x="567" 
d="M186 771v75h36v-75h-36zM352 771v75h36v-75h-36zM92 0v700h417v-28h-383v-302h307v-28h-307v-314h397v-28h-431z" />
    <glyph glyph-name="uni0404" unicode="&#x404;" horiz-adv-x="625" 
d="M554 216l31 -4q-15 -97 -81.5 -160.5t-173.5 -63.5q-135 0 -208.5 102t-73.5 260q0 159 70.5 260.5t205.5 101.5q101 0 171 -57t86 -154l-32 -4q-13 84 -76 135.5t-149 51.5q-112 0 -174.5 -89.5t-67.5 -224.5h325v-28h-325q2 -139 66 -232.5t182 -93.5q92 0 152 56.5
t72 143.5z" />
    <glyph glyph-name="uni0406" unicode="&#x406;" horiz-adv-x="218" 
d="M92 0v700h34v-700h-34z" />
    <glyph glyph-name="uni0407" unicode="&#x407;" horiz-adv-x="218" 
d="M28 771v75h34v-75h-34zM156 771v75h34v-75h-34zM92 0v700h34v-700h-34z" />
    <glyph glyph-name="uni040E" unicode="&#x40e;" horiz-adv-x="605" 
d="M304 762q-58 0 -89 29t-33 78h25q9 -84 97 -84t97 84h25q-2 -49 -33 -78t-89 -29zM541 700h40l-252 -572q-36 -83 -65.5 -108.5t-70.5 -25.5q-20 0 -56 4v27q27 -3 49 -3q34 0 55 21t50 85l20 46h-13l-268 526h40l254 -507z" />
    <glyph glyph-name="uni0410" unicode="&#x410;" horiz-adv-x="631" 
d="M568 0l-78 208h-350l-78 -208h-36l265 700h49l265 -700h-37zM315 676l-165 -440h330z" />
    <glyph glyph-name="uni0411" unicode="&#x411;" horiz-adv-x="609" 
d="M346 394q93 0 154 -49.5t61 -147.5t-61 -147.5t-154 -49.5h-254v700h423v-28h-389v-278h220zM344 28q81 0 132 43t51 126t-51 126t-132 43h-218v-338h218z" />
    <glyph glyph-name="uni0412" unicode="&#x412;" horiz-adv-x="628" 
d="M405 357q81 -7 126 -54.5t45 -122.5q0 -84 -54.5 -132t-154.5 -48h-275v700h275q89 0 141 -46t52 -127q0 -71 -42 -116.5t-113 -53.5zM126 672v-302h251q65 0 107 41.5t42 112.5q0 72 -44.5 110t-116.5 38h-239zM365 28q79 0 128 40t49 115t-48 117t-126 42h-242v-314
h239z" />
    <glyph glyph-name="uni0413" unicode="&#x413;" horiz-adv-x="502" 
d="M92 0v700h380v-28h-346v-672h-34z" />
    <glyph glyph-name="uni0414" unicode="&#x414;" horiz-adv-x="611" 
d="M536 28h55v-194h-31v166h-515v-166h-31v194h44q14 30 25.5 68t20.5 90t14.5 90t11 108t7.5 101t6.5 112.5t5.5 102.5h387v-672zM502 28v644h-322q-18 -322 -34 -432q-18 -125 -55 -212h411z" />
    <glyph glyph-name="uni0415" unicode="&#x415;" horiz-adv-x="567" 
d="M92 0v700h417v-28h-383v-302h307v-28h-307v-314h397v-28h-431z" />
    <glyph glyph-name="uni0416" unicode="&#x416;" horiz-adv-x="973" 
d="M943 0h-41l-262 342h-138v-342h-34v342h-135l-262 -342h-41l274 358l-266 342h38l255 -330h137v330h34v-330h140l255 330h38l-266 -342z" />
    <glyph glyph-name="uni0417" unicode="&#x417;" horiz-adv-x="571" 
d="M330 357q94 -7 141.5 -54.5t47.5 -124.5q0 -89 -61.5 -139.5t-173.5 -50.5q-116 0 -178 55t-70 154l32 3q5 -89 61 -136.5t155 -47.5q92 0 146.5 41t54.5 123q0 79 -51.5 120.5t-145.5 41.5h-104v28h113q81 0 126.5 41t45.5 114q0 77 -49.5 118t-132.5 41
q-84 0 -142 -42.5t-64 -129.5l-32 4q9 99 74 147.5t164 48.5q101 0 158.5 -48t57.5 -133q0 -75 -45 -120.5t-128 -53.5z" />
    <glyph glyph-name="uni0418" unicode="&#x418;" horiz-adv-x="688" 
d="M543 700h53v-700h-34v673l-417 -673h-53v700h34v-673z" />
    <glyph glyph-name="uni0419" unicode="&#x419;" horiz-adv-x="688" 
d="M344 762q-58 0 -89 29t-33 78h25q9 -84 97 -84t97 84h25q-2 -49 -33 -78t-89 -29zM543 700h53v-700h-34v673l-417 -673h-53v700h34v-673z" />
    <glyph glyph-name="uni041A" unicode="&#x41a;" horiz-adv-x="632" 
d="M602 0h-41l-278 342h-157v-342h-34v700h34v-330h159l261 330h38l-274 -342z" />
    <glyph glyph-name="uni041B" unicode="&#x41b;" horiz-adv-x="653" 
d="M158 700h403v-700h-34v672h-338q-2 -58 -5 -162q-8 -300 -28 -408t-94 -108q-18 0 -42 3v27q26 -2 37 -2q16 0 28.5 10t22 33t16 48.5t11 68t7.5 80t5.5 96.5t3.5 104t3 116.5t4 121.5z" />
    <glyph glyph-name="uni041C" unicode="&#x41c;" horiz-adv-x="860" 
d="M709 700h59l-1 -700h-34l1 675l-280 -675h-49l-279 673v-673h-34v700h59l279 -677z" />
    <glyph glyph-name="uni041D" unicode="&#x41d;" horiz-adv-x="678" 
d="M552 700h34v-700h-34v342h-426v-342h-34v700h34v-330h426v330z" />
    <glyph glyph-name="uni041E" unicode="&#x41e;" horiz-adv-x="670" 
d="M48 350q0 156 74.5 259t212.5 103t212.5 -103t74.5 -259t-74.5 -259t-212.5 -103t-212.5 103t-74.5 259zM82 350q0 -144 66.5 -239t186.5 -95t186.5 95t66.5 239t-66.5 239t-186.5 95t-186.5 -95t-66.5 -239z" />
    <glyph glyph-name="uni041F" unicode="&#x41f;" horiz-adv-x="674" 
d="M582 700v-700h-34v672h-422v-672h-34v700h490z" />
    <glyph glyph-name="uni0420" unicode="&#x420;" horiz-adv-x="601" 
d="M92 0v700h248q93 0 154 -50t61 -150t-61 -150t-154 -50h-214v-300h-34zM126 328h212q82 0 132.5 43.5t50.5 128.5t-50.5 128.5t-132.5 43.5h-212v-344z" />
    <glyph glyph-name="uni0421" unicode="&#x421;" horiz-adv-x="622" 
d="M48 350q0 159 70.5 260.5t205.5 101.5q103 0 173 -60.5t81 -161.5l-31 -4q-10 89 -72 143.5t-151 54.5q-116 0 -179 -96t-63 -238q0 -91 26 -165t83.5 -121.5t138.5 -47.5q95 0 153.5 59.5t67.5 151.5l31 -4q-11 -101 -76.5 -168t-175.5 -67q-138 0 -210 99.5t-72 262.5z
" />
    <glyph glyph-name="uni0422" unicode="&#x422;" horiz-adv-x="536" 
d="M28 672v28h480v-28h-223v-672h-34v672h-223z" />
    <glyph glyph-name="uni0423" unicode="&#x423;" horiz-adv-x="605" 
d="M541 700h40l-252 -572q-36 -83 -65.5 -108.5t-70.5 -25.5q-20 0 -56 4v27q27 -3 49 -3q34 0 55 21t50 85l20 46h-13l-268 526h40l254 -507z" />
    <glyph glyph-name="uni0424" unicode="&#x424;" horiz-adv-x="792" 
d="M428 650q66 0 122 -16t101 -48.5t71 -88t26 -128.5t-26 -128.5t-71 -88t-101 -48.5t-122 -16h-15v-88h-34v88h-15q-66 0 -122 16t-101 48.5t-71 88t-26 128.5t26 128.5t71 88t101 48.5t122 16h15v62h34v-62h15zM367 116h12v506h-12q-80 0 -143 -24t-104.5 -83t-41.5 -146
t41.5 -146t104.5 -83t143 -24zM425 116q80 0 143 24t104.5 83t41.5 146t-41.5 146t-104.5 83t-143 24h-12v-506h12z" />
    <glyph glyph-name="uni0425" unicode="&#x425;" horiz-adv-x="618" 
d="M36 0l250 355l-234 345h43l212 -317l212 317h41l-233 -344l253 -356h-43l-230 329l-230 -329h-41z" />
    <glyph glyph-name="uni0426" unicode="&#x426;" horiz-adv-x="657" 
d="M92 0v700h34v-672h422v672h34v-672h55v-194h-31v166h-514z" />
    <glyph glyph-name="uni0427" unicode="&#x427;" horiz-adv-x="626" 
d="M500 700h34v-700h-34v330q-107 -38 -218 -38q-110 0 -163 49t-53 156v203h34v-198q0 -97 46 -139.5t146 -42.5q110 0 208 41v339z" />
    <glyph glyph-name="uni0428" unicode="&#x428;" horiz-adv-x="952" 
d="M92 0v700h34v-672h333v672h34v-672h333v672h34v-700h-768z" />
    <glyph glyph-name="uni0429" unicode="&#x429;" horiz-adv-x="935" 
d="M92 0v700h34v-672h333v672h34v-672h333v672h34v-672h55v-194h-31v166h-792z" />
    <glyph glyph-name="uni042A" unicode="&#x42a;" horiz-adv-x="693" 
d="M438 394q93 0 154 -49.5t61 -147.5t-61 -147.5t-154 -49.5h-242v672h-172v28h206v-306h208zM436 28q81 0 132 43t51 126t-51 126t-132 43h-206v-338h206z" />
    <glyph glyph-name="uni042B" unicode="&#x42b;" horiz-adv-x="768" 
d="M320 394q93 0 154 -49.5t61 -147.5t-61 -147.5t-154 -49.5h-228v700h34v-306h194zM642 700h34v-700h-34v700zM318 28q81 0 132 43t51 126t-51 126t-132 43h-192v-338h192z" />
    <glyph glyph-name="uni042C" unicode="&#x42c;" horiz-adv-x="589" 
d="M334 394q93 0 154 -49.5t61 -147.5t-61 -147.5t-154 -49.5h-242v700h34v-306h208zM332 28q81 0 132 43t51 126t-51 126t-132 43h-206v-338h206z" />
    <glyph glyph-name="uni042D" unicode="&#x42d;" horiz-adv-x="625" 
d="M301 712q135 0 205.5 -101.5t70.5 -260.5q0 -158 -73.5 -260t-208.5 -102q-107 0 -173.5 63.5t-81.5 160.5l31 4q12 -87 72 -143.5t152 -56.5q118 0 182 93.5t66 232.5h-325v28h325q-5 135 -67.5 224.5t-174.5 89.5q-86 0 -149 -51.5t-76 -135.5l-32 4q16 97 86 154
t171 57z" />
    <glyph glyph-name="uni042E" unicode="&#x42e;" horiz-adv-x="900" 
d="M569 712q140 0 211.5 -101.5t71.5 -260.5t-71.5 -260.5t-211.5 -101.5q-138 0 -209.5 99t-73.5 255h-160v-342h-34v700h34v-330h160q5 152 76.5 247t206.5 95zM569 16q120 0 184.5 93.5t64.5 240.5t-64.5 240.5t-184.5 93.5t-184.5 -93.5t-64.5 -240.5t64.5 -240.5
t184.5 -93.5z" />
    <glyph glyph-name="uni042F" unicode="&#x42f;" horiz-adv-x="623" 
d="M531 700v-700h-34v308h-215l-205 -308h-41l210 309q-85 6 -139 55t-54 140q0 97 61 146.5t154 49.5h263zM497 336v336h-227q-81 0 -132 -43t-51 -125t51 -125t132 -43h227z" />
    <glyph glyph-name="uni0430" unicode="&#x430;" horiz-adv-x="516" 
d="M44 129q0 136 189 155l179 18v79q0 55 -38.5 92.5t-113.5 36.5q-69 0 -113.5 -33t-47.5 -98h-31q3 78 54 117.5t138 39.5q92 0 138 -42.5t46 -117.5v-376h-28v123q-21 -63 -76 -99t-134 -36q-83 0 -122.5 39t-39.5 102zM76 129q0 -50 33.5 -82.5t103.5 -32.5
q94 0 146.5 59.5t52.5 159.5v42l-176 -18q-160 -16 -160 -128z" />
    <glyph glyph-name="uni0431" unicode="&#x431;" horiz-adv-x="534" 
d="M273 512q99 0 159 -70t60 -192t-60.5 -192t-161.5 -70q-106 0 -164 75t-58 249q0 192 48.5 285.5t160.5 110.5q97 14 103 15q48 8 83 25v-27q-25 -16 -72 -25q-16 -3 -49 -7.5t-48 -6.5q-47 -7 -77.5 -22t-59 -50t-44.5 -101t-21 -166q19 80 71.5 124.5t129.5 44.5z
M270 14q88 0 139 63.5t51 172.5t-51 172.5t-139 63.5t-139 -63.5t-51 -172.5t51 -172.5t139 -63.5z" />
    <glyph glyph-name="uni0432" unicode="&#x432;" horiz-adv-x="511" 
d="M322 268q141 -11 141 -130q0 -63 -41 -100.5t-125 -37.5h-219v524h209q78 0 120 -36t42 -95q0 -51 -32 -84t-95 -41zM110 498v-218h173q68 0 101 29.5t33 79.5t-34 79.5t-104 29.5h-169zM289 26q142 0 142 115q0 113 -148 113h-173v-228h179z" />
    <glyph glyph-name="uni0433" unicode="&#x433;" horiz-adv-x="404" 
d="M78 0v524h296v-26h-264v-498h-32z" />
    <glyph glyph-name="uni0434" unicode="&#x434;" horiz-adv-x="502" 
d="M423 26h55v-169h-30v143h-404v-143h-30v169h33q17 30 28 102.5t16 138t13 205.5q2 34 3 52h316v-498zM391 26v472h-256q-22 -404 -53 -472h309z" />
    <glyph glyph-name="uni0435" unicode="&#x435;" horiz-adv-x="514" 
d="M42 262q0 132 61 203t159 71q100 0 156 -70t56 -204v-8h-400q2 -113 55 -176.5t140 -63.5q62 0 106.5 32.5t61.5 85.5l29 -3q-19 -65 -70 -103t-127 -38q-105 0 -166 70.5t-61 203.5zM74 280h368q-1 105 -50.5 167.5t-129.5 62.5t-132 -61t-56 -169z" />
    <glyph glyph-name="uni0436" unicode="&#x436;" horiz-adv-x="752" 
d="M738 0h-43l-211 254h-92v-254h-32v254h-92l-211 -254h-43l224 268l-218 256h43l203 -244h94v244h32v-244h94l203 244h43l-218 -256z" />
    <glyph glyph-name="uni0437" unicode="&#x437;" horiz-adv-x="479" 
d="M282 269q149 -15 149 -134q0 -68 -48 -107.5t-148 -39.5q-190 0 -205 160l30 2q12 -136 175 -136q81 0 122.5 33.5t41.5 91.5q0 115 -174 115h-80v26h78q80 0 121 31t41 82q0 53 -41 85t-109 32t-111 -33t-49 -98l-30 3q7 77 56.5 115.5t133.5 38.5q86 0 134 -38t48 -99
q0 -51 -34 -85.5t-101 -44.5z" />
    <glyph glyph-name="uni0438" unicode="&#x438;" horiz-adv-x="554" 
d="M425 524h51v-524h-32v500l-315 -500h-51v524h32v-500z" />
    <glyph glyph-name="uni0439" unicode="&#x439;" horiz-adv-x="554" 
d="M277 602q-56 0 -85.5 31t-31.5 84h25q4 -39 25 -65t67 -26t67 26t25 65h25q-2 -53 -31.5 -84t-85.5 -31zM425 524h51v-524h-32v500l-315 -500h-51v524h32v-500z" />
    <glyph glyph-name="uni043A" unicode="&#x43a;" horiz-adv-x="507" 
d="M493 0h-43l-241 254h-99v-254h-32v524h32v-244h100l229 244h43l-245 -256z" />
    <glyph glyph-name="uni043B" unicode="&#x43b;" horiz-adv-x="514" 
d="M123 524h313v-524h-32v498h-251q-4 -62 -10 -168q-6 -111 -10 -157t-14.5 -97t-29 -66.5t-50.5 -15.5q-7 0 -27 2v25q10 -1 25 -1q42 0 55 78.5t25 312.5q1 24 2 37.5t2 35t2 40.5z" />
    <glyph glyph-name="uni043C" unicode="&#x43c;" horiz-adv-x="716" 
d="M582 524h56v-524h-32v497l-224 -497h-48l-224 497v-497h-32v524h56l224 -506z" />
    <glyph glyph-name="uni043D" unicode="&#x43d;" horiz-adv-x="552" 
d="M78 0v524h32v-244h332v244h32v-524h-32v254h-332v-254h-32z" />
    <glyph glyph-name="uni043E" unicode="&#x43e;" horiz-adv-x="528" 
d="M42 262q0 128 60.5 201t161.5 73t161.5 -73t60.5 -201t-60.5 -201t-161.5 -73t-161.5 73t-60.5 201zM74 262q0 -114 51.5 -181t138.5 -67t138.5 67t51.5 181t-51.5 181t-138.5 67t-138.5 -67t-51.5 -181z" />
    <glyph glyph-name="uni043F" unicode="&#x43f;" horiz-adv-x="546" 
d="M78 0v524h390v-524h-32v498h-326v-498h-32z" />
    <glyph glyph-name="uni0440" unicode="&#x440;" horiz-adv-x="552" 
d="M78 -200v724h28v-130q22 65 72.5 103.5t120.5 38.5q96 0 153.5 -73t57.5 -201t-57.5 -201t-154.5 -73q-66 0 -115 35.5t-73 97.5v-321h-32zM108 262q0 -112 50 -180t135 -68t135 68t50 180t-50 180t-135 68t-135 -68t-50 -180z" />
    <glyph glyph-name="uni0441" unicode="&#x441;" horiz-adv-x="496" 
d="M42 262q0 132 58.5 203t158.5 71q77 0 131.5 -44.5t67.5 -129.5l-29 -4q-12 74 -58.5 113t-111.5 39q-83 0 -134 -66t-51 -182t51.5 -182t135.5 -66q65 0 112 41t59 117l30 -4q-14 -86 -68 -133t-133 -47q-101 0 -160 71t-59 203z" />
    <glyph glyph-name="uni0442" unicode="&#x442;" horiz-adv-x="443" 
d="M26 498v26h391v-26h-179v-498h-32v498h-180z" />
    <glyph glyph-name="uni0443" unicode="&#x443;" horiz-adv-x="504" 
d="M444 524h36l-224 -606q-28 -78 -51 -104t-78 -26q-21 0 -42 3v25q26 -2 40 -2q39 0 59 23t44 90l26 73h-16l-214 524h36l203 -507z" />
    <glyph glyph-name="uni0444" unicode="&#x444;" horiz-adv-x="641" 
d="M342 536q115 0 186 -71.5t71 -202.5t-71 -202.5t-186 -71.5h-5v-188h-32v188h-5q-115 0 -186.5 71.5t-71.5 202.5t71.5 202.5t186.5 71.5h5v200h32v-200h5zM301 14h4v496h-4q-103 0 -165 -65.5t-62 -182.5t62 -182.5t165 -65.5zM341 14q103 0 164.5 65.5t61.5 182.5
t-61.5 182.5t-164.5 65.5h-4v-496h4z" />
    <glyph glyph-name="uni0445" unicode="&#x445;" horiz-adv-x="514" 
d="M486 0h-42l-188 240l-187 -240h-41l207 263l-200 261h42l179 -236l178 236h41l-198 -260z" />
    <glyph glyph-name="uni0446" unicode="&#x446;" horiz-adv-x="547" 
d="M78 0v524h32v-498h326v498h32v-498h55v-169h-30v143h-415z" />
    <glyph glyph-name="uni0447" unicode="&#x447;" horiz-adv-x="516" 
d="M406 524h32v-524h-32v241q-105 -24 -178 -24q-172 0 -172 158v149h32v-142q0 -72 37 -105.5t113 -33.5q66 0 168 26v255z" />
    <glyph glyph-name="uni0448" unicode="&#x448;" horiz-adv-x="822" 
d="M78 0v524h32v-498h285v498h32v-498h285v498h32v-524h-666z" />
    <glyph glyph-name="uni0449" unicode="&#x449;" horiz-adv-x="823" 
d="M78 0v524h32v-498h285v498h32v-498h285v498h32v-498h55v-169h-30v143h-691z" />
    <glyph glyph-name="uni044A" unicode="&#x44a;" horiz-adv-x="575" 
d="M359 301q176 0 176 -150q0 -151 -176 -151h-181h-19v498h-133v26h165v-223h168zM355 26q148 0 148 125q0 124 -148 124h-164v-249h164z" />
    <glyph glyph-name="uni044B" unicode="&#x44b;" horiz-adv-x="649" 
d="M266 301q176 0 176 -150q0 -151 -176 -151h-169h-19v524h32v-223h156zM539 524h32v-524h-32v524zM262 26q148 0 148 125q0 124 -148 124h-152v-249h152z" />
    <glyph glyph-name="uni044C" unicode="&#x44c;" horiz-adv-x="494" 
d="M278 301q176 0 176 -150q0 -151 -176 -151h-181h-19v524h32v-223h168zM274 26q148 0 148 125q0 124 -148 124h-164v-249h164z" />
    <glyph glyph-name="uni044D" unicode="&#x44d;" horiz-adv-x="494" 
d="M235 536q100 0 158.5 -71t58.5 -203t-59 -203t-160 -71q-76 0 -129.5 44t-69.5 126l30 3q15 -71 61 -109t108 -38q83 0 134 63.5t53 176.5h-244v26h244q-4 108 -54.5 169t-130.5 61q-62 0 -108 -36t-60 -105l-29 3q15 80 68.5 122t128.5 42z" />
    <glyph glyph-name="uni044E" unicode="&#x44e;" horiz-adv-x="722" 
d="M463 536q101 0 159 -71.5t58 -202.5t-58 -202.5t-159 -71.5q-99 0 -157 69t-60 197h-136v-254h-32v524h32v-244h136q4 123 62 189.5t155 66.5zM463 14q84 0 134.5 65t50.5 183t-50.5 183t-134.5 65t-134.5 -65t-50.5 -183t50.5 -183t134.5 -65z" />
    <glyph glyph-name="uni044F" unicode="&#x44f;" horiz-adv-x="512" 
d="M223 524h211v-524h-34v236h-161l-160 -236h-41l164 237q-70 5 -109 42.5t-39 100.5q0 67 45 105.5t124 38.5zM400 262v236h-174q-67 0 -103.5 -32t-36.5 -86t36.5 -86t103.5 -32h174z" />
    <glyph glyph-name="uni0451" unicode="&#x451;" horiz-adv-x="514" 
d="M163 624v92h34v-92h-34zM311 624v92h34v-92h-34zM42 262q0 132 61 203t159 71q100 0 156 -70t56 -204v-8h-400q2 -113 55 -176.5t140 -63.5q62 0 106.5 32.5t61.5 85.5l29 -3q-19 -65 -70 -103t-127 -38q-105 0 -166 70.5t-61 203.5zM74 280h368q-1 105 -50.5 167.5
t-129.5 62.5t-132 -61t-56 -169z" />
    <glyph glyph-name="uni0454" unicode="&#x454;" horiz-adv-x="494" 
d="M430 161l30 -3q-16 -82 -69.5 -126t-129.5 -44q-101 0 -160 71t-59 203t58.5 203t158.5 71q75 0 128.5 -42t68.5 -122l-29 -3q-14 69 -60 105t-108 36q-80 0 -130.5 -61t-54.5 -169h244v-26h-244q2 -113 53 -176.5t134 -63.5q62 0 108 38t61 109z" />
    <glyph glyph-name="uni0456" unicode="&#x456;" horiz-adv-x="188" 
d="M77 624v92h34v-92h-34zM78 0v524h32v-524h-32z" />
    <glyph glyph-name="uni0457" unicode="&#x457;" horiz-adv-x="176" 
d="M12 624v92h32v-92h-32zM132 624v92h32v-92h-32zM72 0v524h32v-524h-32z" />
    <glyph glyph-name="uni045E" unicode="&#x45e;" horiz-adv-x="504" 
d="M252 602q-56 0 -85.5 31t-31.5 84h25q4 -39 25 -65t67 -26t67 26t25 65h25q-2 -53 -31.5 -84t-85.5 -31zM444 524h36l-224 -606q-28 -78 -51 -104t-78 -26q-21 0 -42 3v25q26 -2 40 -2q39 0 59 23t44 90l26 73h-16l-214 524h36l203 -507z" />
    <glyph glyph-name="uni0490" unicode="&#x490;" horiz-adv-x="508" 
d="M92 0v700h349v171h31v-199h-346v-672h-34z" />
    <glyph glyph-name="uni0491" unicode="&#x491;" horiz-adv-x="408" 
d="M78 0v524h266v148h30v-174h-264v-498h-32z" />
    <glyph glyph-name="uni04C1" unicode="&#x4c1;" horiz-adv-x="973" 
d="M487 762q-58 0 -89 29t-33 78h25q9 -84 97 -84t97 84h25q-2 -49 -33 -78t-89 -29zM943 0h-41l-262 342h-138v-342h-34v342h-135l-262 -342h-41l274 358l-266 342h38l255 -330h137v330h34v-330h140l255 330h38l-266 -342z" />
    <glyph glyph-name="uni04C2" unicode="&#x4c2;" horiz-adv-x="752" 
d="M376 602q-56 0 -85.5 31t-31.5 84h25q4 -39 25 -65t67 -26t67 26t25 65h25q-2 -53 -31.5 -84t-85.5 -31zM738 0h-43l-211 254h-92v-254h-32v254h-92l-211 -254h-43l224 268l-218 256h43l203 -244h94v244h32v-244h94l203 244h43l-218 -256z" />
    <glyph glyph-name="Wgrave" unicode="&#x1e80;" horiz-adv-x="923" 
d="M482 766h-31l-101 110h40zM854 700h37l-199 -700h-52l-179 676l-179 -676h-52l-198 700h38l186 -673l180 673h52l179 -673z" />
    <glyph glyph-name="wgrave" unicode="&#x1e81;" horiz-adv-x="806" 
d="M429 598h-30l-89 136h36zM742 524h36l-176 -524h-46l-152 502l-153 -502h-48l-175 524h37l162 -500l154 500h47l152 -497z" />
    <glyph glyph-name="Wacute" unicode="&#x1e82;" horiz-adv-x="923" 
d="M574 876l-101 -110h-31l92 110h40zM854 700h37l-199 -700h-52l-179 676l-179 -676h-52l-198 700h38l186 -673l180 673h52l179 -673z" />
    <glyph glyph-name="wacute" unicode="&#x1e83;" horiz-adv-x="806" 
d="M496 734l-89 -136h-30l83 136h36zM742 524h36l-176 -524h-46l-152 502l-153 -502h-48l-175 524h37l162 -500l154 500h47l152 -497z" />
    <glyph glyph-name="Wdieresis" unicode="&#x1e84;" horiz-adv-x="923" 
d="M397 846v-75h-36v75h36zM563 846v-75h-36v75h36zM854 700h37l-199 -700h-52l-179 676l-179 -676h-52l-198 700h38l186 -673l180 673h52l179 -673z" />
    <glyph glyph-name="wdieresis" unicode="&#x1e85;" horiz-adv-x="806" 
d="M346 716v-92h-34v92h34zM494 716v-92h-34v92h34zM742 524h36l-176 -524h-46l-152 502l-153 -502h-48l-175 524h37l162 -500l154 500h47l152 -497z" />
    <glyph glyph-name="uni1E9E" unicode="&#x1e9e;" horiz-adv-x="614" 
d="M501 349q67 -56 67 -156q0 -98 -62 -149.5t-166 -51.5q-40 0 -80 8v27q42 -7 78 -7q84 0 140 43.5t56 132.5q0 87 -53 129.5t-140 42.5q-34 0 -88 -12v26l217 290h-202q-70 0 -111 -45.5t-41 -136.5v-490h-34v496q0 204 191 204h236v-24l-215 -286q130 22 207 -41z" />
    <glyph glyph-name="Ygrave" unicode="&#x1ef2;" horiz-adv-x="614" 
d="M327 766h-31l-101 110h40zM553 700h39l-268 -397v-303h-34v302l-268 398h41l244 -369z" />
    <glyph glyph-name="ygrave" unicode="&#x1ef3;" horiz-adv-x="504" 
d="M278 598h-30l-89 136h36zM444 524h36l-224 -606q-28 -78 -51 -104t-78 -26q-21 0 -42 3v25q26 -2 40 -2q39 0 59 23t44 90l26 73h-16l-214 524h36l203 -507z" />
    <glyph glyph-name="endash" unicode="&#x2013;" horiz-adv-x="544" 
d="M64 311h416v-26h-416v26z" />
    <glyph glyph-name="emdash" unicode="&#x2014;" horiz-adv-x="673" 
d="M64 311h545v-26h-545v26z" />
    <glyph glyph-name="quoteleft" unicode="&#x2018;" horiz-adv-x="136" 
d="M80 712v-164h-34v38l18 126h16z" />
    <glyph glyph-name="quoteright" unicode="&#x2019;" horiz-adv-x="136" 
d="M56 536v164h34v-38l-18 -126h-16z" />
    <glyph glyph-name="quotesinglbase" unicode="&#x201a;" horiz-adv-x="136" 
d="M56 -92v164h34v-38l-18 -126h-16z" />
    <glyph glyph-name="quotedblleft" unicode="&#x201c;" horiz-adv-x="234" 
d="M80 712v-164h-34v38l18 126h16zM178 712v-164h-34v38l18 126h16z" />
    <glyph glyph-name="quotedblright" unicode="&#x201d;" horiz-adv-x="234" 
d="M56 536v164h34v-38l-18 -126h-16zM154 536v164h34v-38l-18 -126h-16z" />
    <glyph glyph-name="quotedblbase" unicode="&#x201e;" horiz-adv-x="234" 
d="M56 -92v164h34v-38l-18 -126h-16zM154 -92v164h34v-38l-18 -126h-16z" />
    <glyph glyph-name="dagger" unicode="&#x2020;" horiz-adv-x="400" 
d="M336 524v-26h-120v-544h-32v544h-120v26h120v176h32v-176h120z" />
    <glyph glyph-name="daggerdbl" unicode="&#x2021;" horiz-adv-x="408" 
d="M340 498h-120v-332h120v-26h-120v-186h-32v186h-120v26h120v332h-120v26h120v176h32v-176h120v-26z" />
    <glyph glyph-name="bullet" unicode="&#x2022;" horiz-adv-x="334" 
d="M166 235q-35 0 -57.5 22t-22.5 58q0 35 22.5 57.5t57.5 21.5q35 1 58.5 -21.5t23.5 -57.5t-23.5 -57.5t-58.5 -22.5z" />
    <glyph glyph-name="ellipsis" unicode="&#x2026;" horiz-adv-x="486" 
d="M66 0v72h46v-72h-46zM220 0v72h46v-72h-46zM374 0v72h46v-72h-46z" />
    <glyph glyph-name="perthousand" unicode="&#x2030;" horiz-adv-x="1056" 
d="M34 545q0 76 38 118.5t104 42.5t104 -42.5t38 -118.5t-38 -119.5t-104 -43.5t-104 43.5t-38 119.5zM111 0l460 700h31l-460 -700h-31zM62 545q0 -64 29.5 -101.5t84.5 -37.5t84.5 37.5t29.5 101.5t-29.5 100.5t-84.5 36.5t-84.5 -36.5t-29.5 -100.5zM395 157
q0 75 37.5 118.5t104.5 43.5t104.5 -43.5t37.5 -118.5t-37.5 -119t-104.5 -44t-104.5 44t-37.5 119zM746 157q0 75 37.5 118.5t104.5 43.5t104.5 -43.5t37.5 -118.5t-37.5 -119t-104.5 -44t-104.5 44t-37.5 119zM422 157q0 -64 30 -102t85 -38t84.5 38t29.5 102t-29.5 102
t-84.5 38t-85 -38t-30 -102zM773 157q0 -64 30 -102t85 -38t84.5 38t29.5 102t-29.5 102t-84.5 38t-85 -38t-30 -102z" />
    <glyph glyph-name="guilsinglleft" unicode="&#x2039;" horiz-adv-x="242" 
d="M194 446l-133 -166l133 -166h-39l-119 151v30l119 151h39z" />
    <glyph glyph-name="guilsinglright" unicode="&#x203a;" horiz-adv-x="242" 
d="M87 446l119 -151v-30l-119 -151h-39l133 166l-133 166h39z" />
    <glyph glyph-name="fraction" unicode="&#x2044;" horiz-adv-x="161" 
d="M-166 0l460 700h33l-460 -700h-33z" />
    <glyph glyph-name="uni2070" unicode="&#x2070;" horiz-adv-x="414" 
d="M48 548q0 104 42 164.5t117 60.5t117 -60.5t42 -164.5t-42 -164.5t-117 -60.5t-117 60.5t-42 164.5zM78 548q0 -91 33.5 -146t95.5 -55t95.5 55t33.5 146t-33.5 145.5t-95.5 54.5t-95.5 -54.5t-33.5 -145.5z" />
    <glyph glyph-name="uni2074" unicode="&#x2074;" horiz-adv-x="407" 
d="M303 463h72v-24h-72v-106h-30v106h-245v23l227 302h48v-301zM59 463h214v285z" />
    <glyph glyph-name="uni2075" unicode="&#x2075;" horiz-adv-x="372" 
d="M193 614q63 0 102 -38.5t39 -104.5q0 -68 -40.5 -106.5t-108.5 -38.5q-61 0 -101.5 30.5t-48.5 83.5l28 2q7 -45 40 -68.5t82 -23.5q50 0 84.5 30.5t34.5 90.5t-33.5 89.5t-83.5 29.5q-79 0 -117 -56l-25 2l19 228h248v-24h-225l-15 -175q46 49 121 49z" />
    <glyph glyph-name="uni2076" unicode="&#x2076;" horiz-adv-x="399" 
d="M213 611q64 0 105 -38.5t41 -105.5t-40.5 -105t-110.5 -38q-160 0 -160 213q0 114 42 175.5t120 61.5q58 0 92.5 -32.5t39.5 -84.5l-28 -2q-4 43 -31.5 69t-72.5 26q-75 0 -108 -73q-24 -50 -25 -153q14 40 50.5 63.5t85.5 23.5zM208 348q55 0 88 32.5t33 86.5
q0 55 -33 87.5t-88 32.5q-54 0 -87.5 -33t-33.5 -87t33.5 -86.5t87.5 -32.5z" />
    <glyph glyph-name="uni2077" unicode="&#x2077;" horiz-adv-x="316" 
d="M22 764h278v-21q-126 -201 -176 -410h-32q49 205 180 407h-250v24z" />
    <glyph glyph-name="uni2078" unicode="&#x2078;" horiz-adv-x="394" 
d="M247 558q51 -10 79 -40.5t28 -74.5q0 -55 -43.5 -87t-113.5 -32t-113.5 32t-43.5 87q0 45 28 75t80 40q-45 9 -71.5 35.5t-26.5 69.5q0 53 41 82t106 29t106 -29t41 -82q0 -43 -26 -69.5t-71 -35.5zM80 659q0 -45 32.5 -68t84.5 -23t84.5 23t32.5 68t-32.5 68t-84.5 23
t-84.5 -23t-32.5 -68zM197 348q57 0 92 25.5t35 72.5t-35 72.5t-92 25.5t-92 -25.5t-35 -72.5t35 -72.5t92 -25.5z" />
    <glyph glyph-name="uni2079" unicode="&#x2079;" horiz-adv-x="399" 
d="M191 774q160 0 160 -213q0 -116 -40.5 -176.5t-119.5 -60.5q-60 0 -94.5 32t-39.5 85l28 2q4 -43 31.5 -69t74.5 -26q78 0 111 82q19 47 20 147q-14 -40 -50.5 -63t-86.5 -23q-62 0 -103.5 38.5t-41.5 102.5q0 66 41 104t110 38zM191 515q54 0 87.5 32t33.5 85
t-33.5 85.5t-87.5 32.5q-55 0 -88 -32.5t-33 -85.5t33 -85t88 -32z" />
    <glyph glyph-name="uni2080" unicode="&#x2080;" horiz-adv-x="414" 
d="M48 98q0 104 42 164.5t117 60.5t117 -60.5t42 -164.5t-42 -164.5t-117 -60.5t-117 60.5t-42 164.5zM78 98q0 -91 33.5 -146t95.5 -55t95.5 55t33.5 146t-33.5 145.5t-95.5 54.5t-95.5 -54.5t-33.5 -145.5z" />
    <glyph glyph-name="uni2081" unicode="&#x2081;" horiz-adv-x="235" 
d="M117 315h25v-431h-30v391l-78 -72v37z" />
    <glyph glyph-name="uni2082" unicode="&#x2082;" horiz-adv-x="331" 
d="M59 -95h242v-24h-281v22l154 167q48 51 67.5 81t19.5 66q0 41 -26 62t-67 21q-101 0 -111 -124l-28 3q4 72 41.5 108.5t97.5 36.5q57 0 90 -28.5t33 -78.5q0 -39 -21 -73t-74 -91z" />
    <glyph glyph-name="uni2083" unicode="&#x2083;" horiz-adv-x="347" 
d="M263 113q49 -32 49 -102q0 -62 -40.5 -98t-109.5 -36q-62 0 -101 31t-45 93l28 2q5 -52 37 -77t81 -25q53 0 86.5 29t33.5 81q0 48 -30 76.5t-87 28.5q-29 0 -64 -6v21l163 160h-230v24h267v-21l-165 -158q80 9 127 -23z" />
    <glyph glyph-name="uni2084" unicode="&#x2084;" horiz-adv-x="407" 
d="M303 14h72v-24h-72v-106h-30v106h-245v23l227 302h48v-301zM59 14h214v285z" />
    <glyph glyph-name="uni2085" unicode="&#x2085;" horiz-adv-x="372" 
d="M193 165q63 0 102 -38.5t39 -104.5q0 -68 -40.5 -106.5t-108.5 -38.5q-61 0 -101.5 30.5t-48.5 83.5l28 2q7 -45 40 -68.5t82 -23.5q50 0 84.5 30.5t34.5 90.5t-33.5 89.5t-83.5 29.5q-79 0 -117 -56l-25 2l19 228h248v-24h-225l-15 -175q46 49 121 49z" />
    <glyph glyph-name="uni2086" unicode="&#x2086;" horiz-adv-x="399" 
d="M213 161q64 0 105 -38.5t41 -105.5t-40.5 -105t-110.5 -38q-160 0 -160 213q0 114 42 175.5t120 61.5q58 0 92.5 -32.5t39.5 -84.5l-28 -2q-4 43 -31.5 69t-72.5 26q-75 0 -108 -73q-24 -50 -25 -153q14 40 50.5 63.5t85.5 23.5zM208 -102q55 0 88 32.5t33 86.5
q0 55 -33 87.5t-88 32.5q-54 0 -87.5 -33t-33.5 -87t33.5 -86.5t87.5 -32.5z" />
    <glyph glyph-name="uni2087" unicode="&#x2087;" horiz-adv-x="316" 
d="M22 315h278v-21q-126 -201 -176 -410h-32q49 205 180 407h-250v24z" />
    <glyph glyph-name="uni2088" unicode="&#x2088;" horiz-adv-x="394" 
d="M247 108q51 -10 79 -40.5t28 -74.5q0 -55 -43.5 -87t-113.5 -32t-113.5 32t-43.5 87q0 45 28 75t80 40q-45 9 -71.5 35.5t-26.5 69.5q0 53 41 82t106 29t106 -29t41 -82q0 -43 -26 -69.5t-71 -35.5zM80 209q0 -45 32.5 -68t84.5 -23t84.5 23t32.5 68t-32.5 68t-84.5 23
t-84.5 -23t-32.5 -68zM197 -102q57 0 92 25.5t35 72.5t-35 72.5t-92 25.5t-92 -25.5t-35 -72.5t35 -72.5t92 -25.5z" />
    <glyph glyph-name="uni2089" unicode="&#x2089;" horiz-adv-x="399" 
d="M191 324q160 0 160 -213q0 -116 -40.5 -176.5t-119.5 -60.5q-60 0 -94.5 32t-39.5 85l28 2q4 -43 31.5 -69t74.5 -26q78 0 111 82q19 47 20 147q-14 -40 -50.5 -63t-86.5 -23q-62 0 -103.5 38.5t-41.5 102.5q0 66 41 104t110 38zM191 65q54 0 87.5 32t33.5 85t-33.5 85.5
t-87.5 32.5q-55 0 -88 -32.5t-33 -85.5t33 -85t88 -32z" />
    <glyph glyph-name="Euro" unicode="&#x20ac;" horiz-adv-x="606" 
d="M540 204l30 -2q-14 -93 -74 -153.5t-157 -60.5q-111 0 -178 80t-81 210h-68v26h66q-1 13 -1 40t1 40h-64v26h66q13 130 77.5 210t175.5 80q89 0 151.5 -51t79.5 -138l-29 -3q-16 76 -71 121t-130 45q-94 0 -151 -74t-70 -190h317v-26h-320q-1 -13 -1 -40t1 -40h318v-26
h-315q14 -116 72 -190t155 -74q82 0 134.5 53t65.5 137z" />
    <glyph glyph-name="uni20B4" unicode="&#x20b4;" horiz-adv-x="492" 
d="M360 397q-26 -19 -52 -32l-106 -55h260v-26h-307q-77 -50 -77 -129q0 -71 46 -106t117 -35q76 0 126 39.5t54 122.5l30 -2q-6 -95 -62 -140.5t-148 -45.5q-91 0 -143 43.5t-52 123.5q0 79 62 129h-72v26h109q6 4 36 20l116 60l13 7h-274v26h312q56 46 56 116
q0 63 -39.5 99t-104.5 36q-37 0 -69.5 -10.5t-60.5 -43.5t-32 -85l-30 3q4 45 23 78.5t48 50.5t59 25t62 8q76 0 126 -41.5t50 -119.5q0 -69 -46 -116h72v-26h-102z" />
    <glyph glyph-name="uni20BD" unicode="&#x20bd;" horiz-adv-x="562" 
d="M313 306h-188v-91h232v-26h-232v-189h-32v189h-61v26h61v91h-61v26h61v356h32h188q88 0 145.5 -48t57.5 -143t-57.5 -143t-145.5 -48zM125 662v-330h186q77 0 125 42t48 123q0 80 -48.5 122.5t-124.5 42.5h-186z" />
    <glyph glyph-name="uni2116" unicode="&#x2116;" horiz-adv-x="1090" 
d="M876 333q-72 0 -115 51t-43 139t43 138.5t115 50.5t115 -50.5t43 -138.5t-43 -139t-115 -51zM558 23v677h34v-700h-58l-408 677v-677h-34v700h58zM876 687q-58 0 -92.5 -44.5t-34.5 -119.5q0 -76 34.5 -120.5t92.5 -44.5t92.5 44.5t34.5 120.5q0 75 -34.5 119.5
t-92.5 44.5zM728 238v25h296v-25h-296z" />
    <glyph glyph-name="trademark" unicode="&#x2122;" horiz-adv-x="745" 
d="M16 676v24h256v-24h-113v-345h-30v345h-113zM638 700h51v-369h-30v347l-127 -347h-43l-127 347v-347h-30v369h51l128 -352z" />
    <glyph glyph-name="oneeighth" unicode="&#x215b;" horiz-adv-x="705" 
d="M94 340v320l-64 -54v35l71 59h23v-360h-30zM490 700h33l-460 -700h-33zM577 184q44 -8 68 -33t24 -62q0 -48 -38 -74.5t-100 -26.5t-100 26.5t-38 74.5q0 37 24.5 62t68.5 33q-84 17 -84 88q0 45 36 69.5t93 24.5t93 -24.5t36 -69.5q0 -71 -83 -88zM432 268
q0 -35 27.5 -54t71.5 -19t71.5 19t27.5 54q0 36 -27 55t-72 19t-72 -19t-27 -55zM531 12q48 0 78 21t30 59q0 37 -30 58t-78 21t-78 -21t-30 -58q0 -38 30 -59t78 -21z" />
    <glyph glyph-name="threeeighths" unicode="&#x215c;" horiz-adv-x="811" 
d="M272 443q0 -54 -35.5 -84.5t-95.5 -30.5q-53 0 -87.5 27t-39.5 80l30 2q4 -43 30.5 -64t66.5 -21q44 0 72.5 24.5t28.5 66.5q0 39 -25.5 62.5t-72.5 23.5q-25 0 -56 -6v22l135 131h-193v24h233v-22l-135 -127q65 6 102 -20q42 -29 42 -88zM596 700h33l-460 -700h-33z
M683 184q44 -8 68 -33t24 -62q0 -48 -38 -74.5t-100 -26.5t-100 26.5t-38 74.5q0 37 24.5 62t68.5 33q-84 17 -84 88q0 45 36 69.5t93 24.5t93 -24.5t36 -69.5q0 -71 -83 -88zM538 268q0 -35 27.5 -54t71.5 -19t71.5 19t27.5 54q0 36 -27 55t-72 19t-72 -19t-27 -55zM637 12
q48 0 78 21t30 59q0 37 -30 58t-78 21t-78 -21t-30 -58q0 -38 30 -59t78 -21z" />
    <glyph glyph-name="fiveeighths" unicode="&#x215d;" horiz-adv-x="831" 
d="M292 454q0 -58 -35.5 -91t-95.5 -33q-54 0 -90 26t-43 73l25 1q7 -36 36 -56t72 -20q44 0 74.5 25.5t30.5 74.5t-29.5 73.5t-73.5 24.5q-70 0 -104 -46l-22 1l17 195h218v-24h-199l-13 -146q41 44 107 44q56 0 90.5 -32.5t34.5 -89.5zM616 700h33l-460 -700h-33zM703 184
q44 -8 68 -33t24 -62q0 -48 -38 -74.5t-100 -26.5t-100 26.5t-38 74.5q0 37 24.5 62t68.5 33q-84 17 -84 88q0 45 36 69.5t93 24.5t93 -24.5t36 -69.5q0 -71 -83 -88zM558 268q0 -35 27.5 -54t71.5 -19t71.5 19t27.5 54q0 36 -27 55t-72 19t-72 -19t-27 -55zM657 12
q48 0 78 21t30 59q0 37 -30 58t-78 21t-78 -21t-30 -58q0 -38 30 -59t78 -21z" />
    <glyph glyph-name="seveneighths" unicode="&#x215e;" horiz-adv-x="764" 
d="M111 340h-32q38 164 152 336h-211v24h239v-21q-106 -167 -148 -339zM549 700h33l-460 -700h-33zM636 184q44 -8 68 -33t24 -62q0 -48 -38 -74.5t-100 -26.5t-100 26.5t-38 74.5q0 37 24.5 62t68.5 33q-84 17 -84 88q0 45 36 69.5t93 24.5t93 -24.5t36 -69.5
q0 -71 -83 -88zM491 268q0 -35 27.5 -54t71.5 -19t71.5 19t27.5 54q0 36 -27 55t-72 19t-72 -19t-27 -55zM590 12q48 0 78 21t30 59q0 37 -30 58t-78 21t-78 -21t-30 -58q0 -38 30 -59t78 -21z" />
    <glyph glyph-name="arrowleft" unicode="&#x2190;" horiz-adv-x="733" 
d="M651 372v-32h-504l236 -233l-53 1l-248 248l249 249h52l-236 -233h504z" />
    <glyph glyph-name="arrowup" unicode="&#x2191;" horiz-adv-x="662" 
d="M580 511v-51l-231 234v-694h-36v694l-231 -234l1 52l248 248z" />
    <glyph glyph-name="arrowright" unicode="&#x2192;" horiz-adv-x="733" 
d="M402 605l249 -249l-248 -248l-53 -1l236 233h-504v32h504l-236 233h52z" />
    <glyph glyph-name="arrowdown" unicode="&#x2193;" horiz-adv-x="662" 
d="M349 6l231 234v-51l-249 -249l-248 248l-1 52l231 -234v694h36v-694z" />
    <glyph glyph-name="arrowboth" unicode="&#x2194;" horiz-adv-x="938" 
d="M640 572l216 -216l-216 -216h-52l203 200h-644l203 -200h-52l-216 216l216 216h52l-203 -200h644l-203 200h52z" />
    <glyph glyph-name="arrowupdn" unicode="&#x2195;" horiz-adv-x="583" 
d="M501 494l-198 201v-678l198 201v-50l-216 -216l-203 203v50l185 -187v676l-185 -187v50l203 203l216 -216v-50z" />
    <glyph glyph-name="uni2196" unicode="&#x2196;" horiz-adv-x="601" 
d="M519 155l-25 -26l-375 375l2 -331l-39 40v351h352l38 -36l-328 2z" />
    <glyph glyph-name="uni2197" unicode="&#x2197;" horiz-adv-x="601" 
d="M167 564h352v-351l-39 -40l2 331l-375 -375l-25 26l375 375l-328 -2z" />
    <glyph glyph-name="uni2198" unicode="&#x2198;" horiz-adv-x="601" 
d="M480 536l39 -40v-351h-352l-38 36l328 -2l-375 375l25 26l375 -375z" />
    <glyph glyph-name="uni2199" unicode="&#x2199;" horiz-adv-x="601" 
d="M519 554l-375 -375l328 2l-38 -36h-352v351l39 40l-2 -331l375 375z" />
    <glyph glyph-name="partialdiff" unicode="&#x2202;" horiz-adv-x="508" 
d="M234 756q107 0 164.5 -93t57.5 -311q0 -187 -62 -275.5t-164 -88.5q-87 0 -137.5 61t-50.5 181q0 109 57 175.5t150 66.5q58 0 104 -29t71 -84q-2 201 -50.5 286t-139.5 85q-97 0 -152 -88l-23 18q62 96 175 96zM227 14q88 0 138.5 72.5t57.5 213.5q-17 69 -63.5 107.5
t-106.5 38.5q-83 0 -131 -60t-48 -156q0 -106 42.5 -161t110.5 -55z" />
    <glyph glyph-name="emptyset" unicode="&#x2205;" horiz-adv-x="556" 
d="M516 514l-86 -86q43 -51 43 -131q0 -91 -54 -142t-141 -51q-81 0 -130 42l-87 -87l-21 21l86 86q-43 51 -43 131q0 91 54 142t141 51q80 0 130 -42l87 87zM115 297q0 -65 33 -109l240 240q-44 36 -110 36q-75 0 -119 -45.5t-44 -121.5zM441 297q0 65 -33 109l-240 -240
q44 -36 110 -36q75 0 119 45.5t44 121.5z" />
    <glyph glyph-name="product" unicode="&#x220f;" horiz-adv-x="599" 
d="M507 700v-773h-32v747h-351v-747h-32v773h415z" />
    <glyph glyph-name="summation" unicode="&#x2211;" horiz-adv-x="456" 
d="M73 -47h357v-26h-392v22l237 387l-227 342v22h376v-26h-340l224 -338z" />
    <glyph glyph-name="minus" unicode="&#x2212;" horiz-adv-x="488" 
d="M64 349h360v-26h-360v26z" />
    <glyph glyph-name="radical" unicode="&#x221a;" horiz-adv-x="522" 
d="M451 712h33l-198 -791h-46l-128 411h-80v28h103l128 -416z" />
    <glyph glyph-name="infinity" unicode="&#x221e;" horiz-adv-x="580" 
d="M424 456q52 0 85 -32.5t33 -93.5q0 -62 -33 -95t-85 -33q-40 0 -70 22t-64 80q-34 -58 -64 -80t-70 -22q-51 0 -84.5 33t-33.5 95q0 61 33 93.5t85 32.5q41 0 71 -22.5t63 -79.5q34 58 64 80t70 22zM157 228q32 0 59.5 21.5t59.5 79.5q-32 57 -59.5 79t-59.5 22
q-40 0 -63.5 -26.5t-23.5 -73.5t23.5 -74.5t63.5 -27.5zM423 228q40 0 63.5 27.5t23.5 74.5t-23.5 73.5t-63.5 26.5q-32 0 -59.5 -22t-59.5 -79q32 -58 59.5 -79.5t59.5 -21.5z" />
    <glyph glyph-name="integral" unicode="&#x222b;" horiz-adv-x="372" 
d="M256 719q24 0 38 -4v-23q-13 3 -38 3q-58 0 -58 -84v-585q0 -105 -88 -105q-24 0 -38 4v23q14 -3 38 -3q58 0 58 84v585q0 105 88 105z" />
    <glyph glyph-name="approxequal" unicode="&#x2248;" horiz-adv-x="513" 
d="M166 419q-30 0 -45.5 -22.5t-15.5 -54.5h-29q0 48 24.5 78t67.5 30q33 0 64.5 -22t60 -44t54.5 -22q30 0 45.5 22.5t15.5 54.5h29q0 -47 -25 -77.5t-67 -30.5q-41 0 -95 44t-84 44zM347 226q30 0 45.5 22.5t15.5 54.5h29q0 -48 -24.5 -78t-67.5 -30q-41 0 -95 44t-84 44
t-45.5 -22.5t-15.5 -54.5h-29q0 48 24.5 78t67.5 30q33 0 64.5 -22t60 -44t54.5 -22z" />
    <glyph glyph-name="notequal" unicode="&#x2260;" horiz-adv-x="504" 
d="M432 398h-135l-60 -136h195v-26h-206l-39 -90h-30l39 90h-124v26h135l60 136h-195v26h206l39 90h30l-39 -90h124v-26z" />
    <glyph glyph-name="lessequal" unicode="&#x2264;" horiz-adv-x="492" 
d="M404 553v-35l-318 -138l318 -105v-35l-340 117v43zM64 159v26h340v-26h-340z" />
    <glyph glyph-name="greaterequal" unicode="&#x2265;" horiz-adv-x="492" 
d="M88 553l340 -153v-43l-340 -117v35l318 105l-318 138v35zM88 159v26h340v-26h-340z" />
    <glyph glyph-name="uni2460" unicode="&#x2460;" 
d="M408 -12q-158 0 -259 99.5t-101 262.5t101 262.5t259 99.5t259 -99.5t101 -262.5t-101 -262.5t-259 -99.5zM408 16q145 0 237.5 91.5t92.5 242.5t-92.5 242.5t-237.5 91.5t-237.5 -91.5t-92.5 -242.5t92.5 -242.5t237.5 -91.5zM346 457v36l62 35h26v-356h-32v317z" />
    <glyph glyph-name="uni2461" unicode="&#x2461;" 
d="M408 -12q-158 0 -259 99.5t-101 262.5t101 262.5t259 99.5t259 -99.5t101 -262.5t-101 -262.5t-259 -99.5zM408 16q145 0 237.5 91.5t92.5 242.5t-92.5 242.5t-237.5 91.5t-237.5 -91.5t-92.5 -242.5t92.5 -242.5t237.5 -91.5zM300 173v24l116 130q26 29 37 43t21 34.5
t10 39.5q0 32 -18.5 48.5t-47.5 16.5q-73 0 -80 -97l-30 3q4 60 33.5 90t76.5 30q45 0 71.5 -24t26.5 -67q0 -31 -16.5 -59t-56.5 -73l-101 -113h183v-26h-225z" />
    <glyph glyph-name="uni2462" unicode="&#x2462;" 
d="M408 -12q-158 0 -259 99.5t-101 262.5t101 262.5t259 99.5t259 -99.5t101 -262.5t-101 -262.5t-259 -99.5zM408 16q145 0 237.5 91.5t92.5 242.5t-92.5 242.5t-237.5 91.5t-237.5 -91.5t-92.5 -242.5t92.5 -242.5t237.5 -91.5zM289 270l31 2q4 -41 27.5 -60.5t59.5 -19.5
q40 0 64.5 23t24.5 63q0 37 -22 59.5t-64 22.5q-22 0 -51 -6v24l119 124h-174v26h216v-24l-121 -120q61 2 95 -24t34 -82q0 -52 -33 -82t-88 -30q-50 0 -82 26.5t-36 77.5z" />
    <glyph glyph-name="uni2463" unicode="&#x2463;" 
d="M408 -12q-158 0 -259 99.5t-101 262.5t101 262.5t259 99.5t259 -99.5t101 -262.5t-101 -262.5t-259 -99.5zM408 16q145 0 237.5 91.5t92.5 242.5t-92.5 242.5t-237.5 91.5t-237.5 -91.5t-92.5 -242.5t92.5 -242.5t237.5 -91.5zM255 258v25l179 245h52v-243h59v-27h-59
v-86h-32v86h-199zM288 285h166v227z" />
    <glyph glyph-name="uni2464" unicode="&#x2464;" 
d="M408 -12q-158 0 -259 99.5t-101 262.5t101 262.5t259 99.5t259 -99.5t101 -262.5t-101 -262.5t-259 -99.5zM408 16q145 0 237.5 91.5t92.5 242.5t-92.5 242.5t-237.5 91.5t-237.5 -91.5t-92.5 -242.5t92.5 -242.5t237.5 -91.5zM289 262l31 3q6 -35 30.5 -54t60.5 -19
q37 0 62.5 24.5t25.5 70.5q0 47 -24.5 70t-62.5 23q-59 0 -86 -45l-29 3l15 190h202v-26h-177l-11 -137q35 40 94 40q50 0 81 -31.5t31 -86.5q0 -57 -33 -89t-88 -32q-49 0 -82 25.5t-40 70.5z" />
    <glyph glyph-name="uni2465" unicode="&#x2465;" 
d="M408 -12q-158 0 -259 99.5t-101 262.5t101 262.5t259 99.5t259 -99.5t101 -262.5t-101 -262.5t-259 -99.5zM408 16q145 0 237.5 91.5t92.5 242.5t-92.5 242.5t-237.5 91.5t-237.5 -91.5t-92.5 -242.5t92.5 -242.5t237.5 -91.5zM282 341q0 94 34 143.5t98 49.5
q48 0 76 -26.5t32 -70.5l-31 -2q-2 32 -22.5 52.5t-54.5 20.5q-98 0 -100 -171q27 64 104 64q52 0 84.5 -31t32.5 -86t-33 -86.5t-90 -31.5q-130 0 -130 175zM321 284q0 -41 25 -66.5t66 -25.5t66 25.5t25 66.5q0 42 -25 67t-66 25t-66 -25t-25 -67z" />
    <glyph glyph-name="uni2466" unicode="&#x2466;" 
d="M408 -12q-158 0 -259 99.5t-101 262.5t101 262.5t259 99.5t259 -99.5t101 -262.5t-101 -262.5t-259 -99.5zM408 16q145 0 237.5 91.5t92.5 242.5t-92.5 242.5t-237.5 91.5t-237.5 -91.5t-92.5 -242.5t92.5 -242.5t237.5 -91.5zM301 502v26h222v-23q-99 -165 -133 -333
h-36q36 165 138 330h-191z" />
    <glyph glyph-name="uni2467" unicode="&#x2467;" 
d="M408 -12q-158 0 -259 99.5t-101 262.5t101 262.5t259 99.5t259 -99.5t101 -262.5t-101 -262.5t-259 -99.5zM408 16q145 0 237.5 91.5t92.5 242.5t-92.5 242.5t-237.5 91.5t-237.5 -91.5t-92.5 -242.5t92.5 -242.5t237.5 -91.5zM279 264q0 37 22.5 61t64.5 32
q-78 17 -78 86q0 43 33.5 67t86.5 24t86.5 -24t33.5 -67q0 -69 -78 -86q42 -8 64.5 -32t22.5 -61q0 -46 -36 -72t-93 -26t-93 26t-36 72zM320 439q0 -34 24 -52t64 -18t64 18t24 52t-24 51.5t-64 17.5t-64 -17.5t-24 -51.5zM311 268q0 -36 27 -56t70 -20t70 20t27 56
t-27 55.5t-70 19.5t-70 -19.5t-27 -55.5z" />
    <glyph glyph-name="uni2468" unicode="&#x2468;" 
d="M408 -12q-158 0 -259 99.5t-101 262.5t101 262.5t259 99.5t259 -99.5t101 -262.5t-101 -262.5t-259 -99.5zM410 16q145 0 237.5 91.5t92.5 242.5t-92.5 242.5t-237.5 91.5t-237.5 -91.5t-92.5 -242.5t92.5 -242.5t237.5 -91.5zM281 417q0 54 33.5 85.5t89.5 31.5
q132 0 132 -175q0 -95 -33.5 -144t-97.5 -49q-49 0 -77.5 26t-32.5 71l31 2q2 -33 23 -53t56 -20q96 0 98 174q-27 -64 -105 -64q-50 0 -83.5 31t-33.5 84zM314 417q0 -41 25 -65.5t66 -24.5t66 25t25 65q0 41 -25 66t-66 25t-66 -25t-25 -66z" />
    <glyph glyph-name="uni24EA" unicode="&#x24ea;" 
d="M408 -12q-158 0 -259 99.5t-101 262.5t101 262.5t259 99.5t259 -99.5t101 -262.5t-101 -262.5t-259 -99.5zM408 16q145 0 237.5 91.5t92.5 242.5t-92.5 242.5t-237.5 91.5t-237.5 -91.5t-92.5 -242.5t92.5 -242.5t237.5 -91.5zM277 350q0 86 34.5 135t96.5 49t96.5 -49
t34.5 -135t-34.5 -135t-96.5 -49t-96.5 49t-34.5 135zM309 350q0 -73 26 -115.5t73 -42.5t73 42.5t26 115.5t-26 115.5t-73 42.5t-73 -42.5t-26 -115.5z" />
    <glyph glyph-name="uni24FF" unicode="&#x24ff;" 
d="M408 -12q-158 0 -259 99.5t-101 262.5t101 262.5t259 99.5t259 -99.5t101 -262.5t-101 -262.5t-259 -99.5zM277 350q0 -86 34.5 -135t96.5 -49t96.5 49t34.5 135t-34.5 135t-96.5 49t-96.5 -49t-34.5 -135zM309 350q0 73 26 115.5t73 42.5t73 -42.5t26 -115.5t-26 -115.5
t-73 -42.5t-73 42.5t-26 115.5z" />
    <glyph glyph-name="lozenge" unicode="&#x25ca;" horiz-adv-x="454" 
d="M250 700l164 -350l-164 -350h-46l-164 350l164 350h46zM227 24l150 326l-150 326l-150 -326z" />
    <glyph glyph-name="uni2776" unicode="&#x2776;" 
d="M408 -12q-158 0 -259 99.5t-101 262.5t101 262.5t259 99.5t259 -99.5t101 -262.5t-101 -262.5t-259 -99.5zM346 457l56 32v-317h32v356h-26l-62 -35v-36z" />
    <glyph glyph-name="uni2777" unicode="&#x2777;" 
d="M408 -12q-158 0 -259 99.5t-101 262.5t101 262.5t259 99.5t259 -99.5t101 -262.5t-101 -262.5t-259 -99.5zM300 173h225v26h-183l101 113q40 45 56.5 73t16.5 59q0 43 -26.5 67t-71.5 24q-47 0 -76.5 -30t-33.5 -90l30 -3q7 97 80 97q29 0 47.5 -16.5t18.5 -48.5
q0 -28 -15 -51.5t-53 -65.5l-116 -130v-24z" />
    <glyph glyph-name="uni2778" unicode="&#x2778;" 
d="M408 -12q-158 0 -259 99.5t-101 262.5t101 262.5t259 99.5t259 -99.5t101 -262.5t-101 -262.5t-259 -99.5zM289 270q4 -51 36 -77.5t82 -26.5q55 0 88 30t33 82q0 56 -34 82t-95 24l121 120v24h-216v-26h174l-119 -124v-24q28 6 51 6q42 0 64 -22.5t22 -59.5
q0 -40 -24.5 -63t-64.5 -23q-36 0 -59.5 19.5t-27.5 60.5z" />
    <glyph glyph-name="uni2779" unicode="&#x2779;" 
d="M408 -12q-158 0 -259 99.5t-101 262.5t101 262.5t259 99.5t259 -99.5t101 -262.5t-101 -262.5t-259 -99.5zM255 258h199v-86h32v86h59v27h-59v243h-52l-179 -245v-25zM288 285l166 227v-227h-166z" />
    <glyph glyph-name="uni277A" unicode="&#x277a;" 
d="M408 -12q-158 0 -259 99.5t-101 262.5t101 262.5t259 99.5t259 -99.5t101 -262.5t-101 -262.5t-259 -99.5zM289 262q7 -45 40 -70.5t82 -25.5q55 0 88 32t33 89q0 55 -31 86.5t-81 31.5q-59 0 -94 -40l11 137h177v26h-202l-15 -190l29 -3q27 45 86 45q38 0 62.5 -23
t24.5 -70q0 -46 -25.5 -70.5t-62.5 -24.5q-36 0 -60.5 19t-30.5 54z" />
    <glyph glyph-name="uni277B" unicode="&#x277b;" 
d="M408 -12q-158 0 -259 99.5t-101 262.5t101 262.5t259 99.5t259 -99.5t101 -262.5t-101 -262.5t-259 -99.5zM282 341q0 -175 130 -175q57 0 90 31.5t33 86.5t-32.5 86t-84.5 31q-77 0 -104 -64q2 171 100 171q34 0 54.5 -20.5t22.5 -52.5l31 2q-4 44 -32 70.5t-76 26.5
q-64 0 -98 -49.5t-34 -143.5zM321 284q0 42 25 67t66 25t66 -25t25 -67q0 -41 -25 -66.5t-66 -25.5t-66 25.5t-25 66.5z" />
    <glyph glyph-name="uni277C" unicode="&#x277c;" 
d="M408 -12q-158 0 -259 99.5t-101 262.5t101 262.5t259 99.5t259 -99.5t101 -262.5t-101 -262.5t-259 -99.5zM301 502h191q-102 -165 -138 -330h36q34 168 133 333v23h-222v-26z" />
    <glyph glyph-name="uni277D" unicode="&#x277d;" 
d="M408 -12q-158 0 -259 99.5t-101 262.5t101 262.5t259 99.5t259 -99.5t101 -262.5t-101 -262.5t-259 -99.5zM279 264q0 -46 36 -72t93 -26t93 26t36 72q0 37 -22.5 61t-64.5 32q78 17 78 86q0 43 -33.5 67t-86.5 24t-86.5 -24t-33.5 -67q0 -69 78 -86q-42 -8 -64.5 -32
t-22.5 -61zM320 439q0 34 24 51.5t64 17.5t64 -17.5t24 -51.5t-24 -52t-64 -18t-64 18t-24 52zM311 268q0 36 27 55.5t70 19.5t70 -19.5t27 -55.5t-27 -56t-70 -20t-70 20t-27 56z" />
    <glyph glyph-name="uni277E" unicode="&#x277e;" 
d="M408 -12q-158 0 -259 99.5t-101 262.5t101 262.5t259 99.5t259 -99.5t101 -262.5t-101 -262.5t-259 -99.5zM281 417q0 -53 33.5 -84t83.5 -31q78 0 105 64q-2 -174 -98 -174q-35 0 -56 20t-23 53l-31 -2q4 -45 32.5 -71t77.5 -26q64 0 97.5 49t33.5 144q0 175 -132 175
q-56 0 -89.5 -31.5t-33.5 -85.5zM314 417q0 41 25 66t66 25t66 -25t25 -66q0 -40 -25 -65t-66 -25t-66 24.5t-25 65.5z" />
    <glyph glyph-name="i.loclTRK" horiz-adv-x="200" 
d="M83 624v92h34v-92h-34zM84 0v524h32v-524h-32z" />
    <glyph glyph-name="zero.osf" horiz-adv-x="558" 
d="M48 283q0 136 61 214.5t170 78.5t170 -78.5t61 -214.5t-61 -214.5t-170 -78.5t-170 78.5t-61 214.5zM80 283q0 -121 51.5 -194t147.5 -73t147.5 73t51.5 194t-51.5 194t-147.5 73t-147.5 -73t-51.5 -194z" />
    <glyph glyph-name="one.osf" horiz-adv-x="463" 
d="M265 26h158v-26h-361v26h171v501l-149 -102v34l156 107h25v-540z" />
    <glyph glyph-name="two.osf" horiz-adv-x="479" 
d="M69 26h380v-26h-425v24l242 221q75 68 105.5 107t30.5 86q0 56 -43 84t-111 28q-78 0 -126 -41t-55 -124l-29 3q7 93 63.5 140.5t146.5 47.5q87 0 136.5 -36.5t49.5 -101.5q0 -51 -33 -95.5t-115 -118.5z" />
    <glyph glyph-name="three.osf" horiz-adv-x="500" 
d="M392 240q70 -54 70 -159q0 -96 -59.5 -154t-163.5 -58q-92 0 -150.5 49t-66.5 146l29 3q7 -88 59 -130t129 -42q84 0 137.5 49t53.5 137q0 80 -48 127.5t-138 47.5q-48 0 -96 -9v25l257 268h-356v26h397v-24l-258 -265q131 19 204 -37z" />
    <glyph glyph-name="four.osf" horiz-adv-x="557" 
d="M417 60h104v-26h-104v-155h-32v155h-355v24l335 508h52v-506zM65 60h320v487z" />
    <glyph glyph-name="five.osf" horiz-adv-x="511" 
d="M260 325q96 0 154.5 -60.5t58.5 -165.5q0 -107 -60 -168.5t-160 -61.5q-91 0 -151 48t-72 131l30 3q11 -74 63.5 -115t129.5 -41q79 0 133.5 51.5t54.5 152.5t-53 150.5t-131 49.5q-56 0 -106 -24.5t-79 -70.5l-27 2l29 360h366v-26h-341l-23 -294q69 79 184 79z" />
    <glyph glyph-name="six.osf" horiz-adv-x="549" 
d="M289 447q95 0 156.5 -61t61.5 -168t-59.5 -168.5t-161.5 -61.5q-234 0 -234 342q0 183 61.5 282.5t175.5 99.5q85 0 135.5 -52.5t56.5 -134.5l-30 -3q-5 73 -48 118.5t-114 45.5q-121 0 -173 -137q-32 -86 -32 -259q18 73 72.5 115t132.5 42zM287 14q85 0 136.5 56
t51.5 148t-51.5 148t-136.5 56t-137 -56t-52 -148t52 -148t137 -56z" />
    <glyph glyph-name="seven.osf" horiz-adv-x="486" 
d="M34 566h422v-24q-196 -323 -278 -663h-34q82 338 282 661h-392v26z" />
    <glyph glyph-name="eight.osf" horiz-adv-x="542" 
d="M338 363q78 -15 120 -63.5t42 -120.5q0 -88 -62.5 -139.5t-166.5 -51.5t-166.5 51.5t-62.5 139.5q0 71 42.5 120t120.5 64q-69 14 -108.5 57t-39.5 114q0 84 59.5 131t154.5 47t154.5 -47t59.5 -131q0 -71 -39.5 -114.5t-107.5 -56.5zM89 531q0 -77 50.5 -116.5
t131.5 -39.5t131.5 39.5t50.5 116.5t-50.5 116t-131.5 39t-131.5 -39t-50.5 -116zM271 14q87 0 142 44.5t55 123.5t-55 123t-142 44t-142 -44t-55 -123t55 -123.5t142 -44.5z" />
    <glyph glyph-name="nine.osf" horiz-adv-x="549" 
d="M263 576q234 0 234 -334q0 -181 -59.5 -276.5t-174.5 -95.5q-87 0 -138 50.5t-57 131.5l30 3q5 -71 48.5 -115t116.5 -44q119 0 171 134q19 50 25 103.5t6 153.5q-18 -71 -73 -112t-134 -41q-93 0 -154.5 60t-61.5 161q0 103 59.5 162t161.5 59zM262 159q85 0 137 54
t52 142t-52 141.5t-137 53.5t-136.5 -53.5t-51.5 -141.5t51.5 -142t136.5 -54z" />
    <glyph glyph-name="zero.subs" horiz-adv-x="414" 
d="M48 98q0 104 42 164.5t117 60.5t117 -60.5t42 -164.5t-42 -164.5t-117 -60.5t-117 60.5t-42 164.5zM78 98q0 -91 33.5 -146t95.5 -55t95.5 55t33.5 146t-33.5 145.5t-95.5 54.5t-95.5 -54.5t-33.5 -145.5z" />
    <glyph glyph-name="one.subs" horiz-adv-x="235" 
d="M117 315h25v-431h-30v391l-78 -72v37z" />
    <glyph glyph-name="two.subs" horiz-adv-x="331" 
d="M59 -95h242v-24h-281v22l154 167q48 51 67.5 81t19.5 66q0 41 -26 62t-67 21q-101 0 -111 -124l-28 3q4 72 41.5 108.5t97.5 36.5q57 0 90 -28.5t33 -78.5q0 -39 -21 -73t-74 -91z" />
    <glyph glyph-name="three.subs" horiz-adv-x="347" 
d="M263 113q49 -32 49 -102q0 -62 -40.5 -98t-109.5 -36q-62 0 -101 31t-45 93l28 2q5 -52 37 -77t81 -25q53 0 86.5 29t33.5 81q0 48 -30 76.5t-87 28.5q-29 0 -64 -6v21l163 160h-230v24h267v-21l-165 -158q80 9 127 -23z" />
    <glyph glyph-name="four.subs" horiz-adv-x="407" 
d="M303 14h72v-24h-72v-106h-30v106h-245v23l227 302h48v-301zM59 14h214v285z" />
    <glyph glyph-name="five.subs" horiz-adv-x="372" 
d="M193 165q63 0 102 -38.5t39 -104.5q0 -68 -40.5 -106.5t-108.5 -38.5q-61 0 -101.5 30.5t-48.5 83.5l28 2q7 -45 40 -68.5t82 -23.5q50 0 84.5 30.5t34.5 90.5t-33.5 89.5t-83.5 29.5q-79 0 -117 -56l-25 2l19 228h248v-24h-225l-15 -175q46 49 121 49z" />
    <glyph glyph-name="six.subs" horiz-adv-x="399" 
d="M213 161q64 0 105 -38.5t41 -105.5t-40.5 -105t-110.5 -38q-160 0 -160 213q0 114 42 175.5t120 61.5q58 0 92.5 -32.5t39.5 -84.5l-28 -2q-4 43 -31.5 69t-72.5 26q-75 0 -108 -73q-24 -50 -25 -153q14 40 50.5 63.5t85.5 23.5zM208 -102q55 0 88 32.5t33 86.5
q0 55 -33 87.5t-88 32.5q-54 0 -87.5 -33t-33.5 -87t33.5 -86.5t87.5 -32.5z" />
    <glyph glyph-name="seven.subs" horiz-adv-x="316" 
d="M22 315h278v-21q-126 -201 -176 -410h-32q49 205 180 407h-250v24z" />
    <glyph glyph-name="eight.subs" horiz-adv-x="394" 
d="M247 108q51 -10 79 -40.5t28 -74.5q0 -55 -43.5 -87t-113.5 -32t-113.5 32t-43.5 87q0 45 28 75t80 40q-45 9 -71.5 35.5t-26.5 69.5q0 53 41 82t106 29t106 -29t41 -82q0 -43 -26 -69.5t-71 -35.5zM80 209q0 -45 32.5 -68t84.5 -23t84.5 23t32.5 68t-32.5 68t-84.5 23
t-84.5 -23t-32.5 -68zM197 -102q57 0 92 25.5t35 72.5t-35 72.5t-92 25.5t-92 -25.5t-35 -72.5t35 -72.5t92 -25.5z" />
    <glyph glyph-name="nine.subs" horiz-adv-x="399" 
d="M191 324q160 0 160 -213q0 -116 -40.5 -176.5t-119.5 -60.5q-60 0 -94.5 32t-39.5 85l28 2q4 -43 31.5 -69t74.5 -26q78 0 111 82q19 47 20 147q-14 -40 -50.5 -63t-86.5 -23q-62 0 -103.5 38.5t-41.5 102.5q0 66 41 104t110 38zM191 65q54 0 87.5 32t33.5 85t-33.5 85.5
t-87.5 32.5q-55 0 -88 -32.5t-33 -85.5t33 -85t88 -32z" />
    <glyph glyph-name="zero.tf" horiz-adv-x="630" 
d="M84 350q0 168 61 265t170 97t170 -97t61 -265t-61 -265t-170 -97t-170 97t-61 265zM116 350q0 -152 51.5 -244t147.5 -92t147.5 92t51.5 244t-51.5 243t-147.5 91t-147.5 -91t-51.5 -243z" />
    <glyph glyph-name="one.tf" horiz-adv-x="630" 
d="M354 26h192v-26h-445v26h221v633l-200 -160v35l207 166h25v-674z" />
    <glyph glyph-name="two.tf" horiz-adv-x="630" 
d="M138 26h382v-26h-425v24l242 278q51 59 74.5 89t42.5 71t19 82q0 71 -43 106.5t-111 35.5q-78 0 -126 -51.5t-55 -156.5l-29 3q7 115 63 173t147 58q87 0 136.5 -45t49.5 -123q0 -62 -33 -117t-115 -149z" />
    <glyph glyph-name="three.tf" horiz-adv-x="630" 
d="M448 370q74 -55 74 -166q0 -98 -59.5 -157t-163.5 -59q-92 0 -150.5 50t-66.5 149l29 3q7 -90 59 -133t129 -43q84 0 137.5 50.5t53.5 139.5q0 82 -48 131t-138 49q-50 0 -96 -10v25l257 275h-356v26h397v-24l-257 -270q127 16 199 -36z" />
    <glyph glyph-name="four.tf" horiz-adv-x="630" 
d="M454 203h104v-26h-104v-177h-32v177h-355v24l334 499h53v-497zM102 203h320v478z" />
    <glyph glyph-name="five.tf" horiz-adv-x="630" 
d="M327 453q95 0 154 -61.5t59 -168.5q0 -109 -60 -172t-160 -63q-91 0 -151 49t-72 134l30 3q11 -76 63 -118t130 -42t133 53t55 156t-53 153.5t-131 50.5q-56 0 -106 -25t-79 -72l-27 2l29 368h366v-26h-341l-23 -301q70 80 184 80z" />
    <glyph glyph-name="six.tf" horiz-adv-x="630" 
d="M339 447q95 0 156.5 -61t61.5 -168t-59.5 -168.5t-161.5 -61.5q-234 0 -234 342q0 183 61.5 282.5t175.5 99.5q85 0 135.5 -52.5t56.5 -134.5l-30 -3q-5 73 -48 118.5t-114 45.5q-109 0 -163 -115q-25 -53 -33.5 -113.5t-8.5 -167.5q18 73 72.5 115t132.5 42zM337 14
q85 0 136.5 56t51.5 148t-51.5 148t-136.5 56t-137 -56t-52 -148t52 -148t137 -56z" />
    <glyph glyph-name="seven.tf" horiz-adv-x="630" 
d="M100 700h422v-24q-196 -331 -277 -676h-36q81 339 283 674h-392v26z" />
    <glyph glyph-name="eight.tf" horiz-adv-x="630" 
d="M382 363q78 -15 120 -63.5t42 -120.5q0 -88 -62.5 -139.5t-166.5 -51.5t-166.5 51.5t-62.5 139.5q0 71 42.5 120t120.5 64q-69 14 -108.5 57t-39.5 114q0 84 59.5 131t154.5 47t154.5 -47t59.5 -131q0 -71 -39.5 -114.5t-107.5 -56.5zM133 531q0 -77 50.5 -116.5
t131.5 -39.5t131.5 39.5t50.5 116.5t-50.5 116t-131.5 39t-131.5 -39t-50.5 -116zM315 14q87 0 142 44.5t55 123.5t-55 123t-142 44t-142 -44t-55 -123t55 -123.5t142 -44.5z" />
    <glyph glyph-name="nine.tf" horiz-adv-x="630" 
d="M294 712q234 0 234 -342q0 -186 -59.5 -284t-174.5 -98q-88 0 -138.5 52t-56.5 135l30 3q5 -73 48.5 -118.5t116.5 -45.5q114 0 166 125q22 55 29 112.5t7 164.5q-18 -73 -73 -115t-134 -42q-93 0 -154.5 61t-61.5 165q0 106 59.5 166.5t161.5 60.5zM293 284
q85 0 137 55.5t52 145.5t-52 145.5t-137 55.5t-136.5 -55.5t-51.5 -145.5t51.5 -145.5t136.5 -55.5z" />
    <glyph glyph-name="zero.tosf" horiz-adv-x="630" 
d="M84 283q0 136 61 214.5t170 78.5t170 -78.5t61 -214.5t-61 -214.5t-170 -78.5t-170 78.5t-61 214.5zM116 283q0 -121 51.5 -194t147.5 -73t147.5 73t51.5 194t-51.5 194t-147.5 73t-147.5 -73t-51.5 -194z" />
    <glyph glyph-name="one.tosf" horiz-adv-x="630" 
d="M359 26h211v-26h-471v26h228v501l-199 -102v34l207 107h24v-540z" />
    <glyph glyph-name="two.tosf" horiz-adv-x="630" 
d="M140 26h380v-26h-425v24l242 221q75 68 105.5 107t30.5 86q0 56 -43 84t-111 28q-78 0 -126 -41t-55 -124l-29 3q7 93 63.5 140.5t146.5 47.5q87 0 136.5 -36.5t49.5 -101.5q0 -51 -33 -95.5t-115 -118.5z" />
    <glyph glyph-name="three.tosf" horiz-adv-x="630" 
d="M448 238q73 -54 73 -159q0 -96 -62.5 -153t-171.5 -57q-97 0 -158.5 48.5t-69.5 145.5l29 3q7 -87 62.5 -129t136.5 -42q89 0 145.5 49t56.5 135q0 80 -51 127.5t-146 47.5q-51 0 -100 -9v25l272 270h-377v26h417v-24l-270 -266q137 15 214 -38z" />
    <glyph glyph-name="four.tosf" horiz-adv-x="630" 
d="M455 79h107v-26h-107v-174h-32v174h-366v24l346 489h52v-487zM92 79h331v468z" />
    <glyph glyph-name="five.tosf" horiz-adv-x="630" 
d="M323 322q97 0 157 -60t60 -164q0 -107 -61 -168t-163 -61q-92 0 -153.5 47.5t-73.5 130.5l30 3q11 -74 64.5 -114.5t132.5 -40.5q80 0 136 51.5t56 151.5t-54 149t-134 49q-57 0 -108 -24t-81 -70l-27 2l30 362h372v-26h-347l-24 -297q71 79 188 79z" />
    <glyph glyph-name="six.tosf" horiz-adv-x="630" 
d="M337 448q95 0 156.5 -61.5t61.5 -168.5t-59.5 -168.5t-161.5 -61.5q-234 0 -234 342q0 183 61.5 282.5t175.5 99.5q85 0 135.5 -52.5t56.5 -134.5l-30 -3q-5 73 -48 118.5t-114 45.5q-104 0 -158 -104q-28 -53 -37.5 -116t-9.5 -176q18 73 72.5 115.5t132.5 42.5zM335 14
q85 0 136.5 56t51.5 148t-51.5 148t-136.5 56t-137 -56t-52 -148t52 -148t137 -56z" />
    <glyph glyph-name="seven.tosf" horiz-adv-x="630" 
d="M92 566h422v-24q-196 -323 -278 -663h-34q82 338 282 661h-392v26z" />
    <glyph glyph-name="eight.tosf" horiz-adv-x="630" 
d="M382 363q78 -15 120 -63.5t42 -120.5q0 -88 -62.5 -139.5t-166.5 -51.5t-166.5 51.5t-62.5 139.5q0 71 42.5 120t120.5 64q-69 14 -108.5 57t-39.5 114q0 84 59.5 131t154.5 47t154.5 -47t59.5 -131q0 -71 -39.5 -114.5t-107.5 -56.5zM133 531q0 -77 50.5 -116.5
t131.5 -39.5t131.5 39.5t50.5 116.5t-50.5 116t-131.5 39t-131.5 -39t-50.5 -116zM315 14q87 0 142 44.5t55 123.5t-55 123t-142 44t-142 -44t-55 -123t55 -123.5t142 -44.5z" />
    <glyph glyph-name="nine.tosf" horiz-adv-x="630" 
d="M294 575q234 0 234 -333q0 -182 -59.5 -277.5t-174.5 -95.5q-88 0 -138.5 51t-56.5 132l30 3q5 -71 48.5 -115.5t116.5 -44.5q115 0 166 122q22 52 29 108.5t7 160.5q-18 -71 -73 -112t-134 -41q-93 0 -154.5 60t-61.5 161q0 103 59.5 162t161.5 59zM293 158q85 0 137 54
t52 142t-52 141.5t-137 53.5t-136.5 -53.5t-51.5 -141.5t51.5 -142t136.5 -54z" />
    <glyph glyph-name="zero.zero" horiz-adv-x="566" 
d="M283 712q109 0 170 -97t61 -265t-61 -265t-170 -97t-170 97t-61 265t61 265t170 97zM283 686q-96 0 -147.5 -92t-51.5 -244q0 -137 40 -221l303 470q-52 87 -144 87zM283 14q96 0 147.5 92t51.5 244q0 137 -40 221l-303 -470q52 -87 144 -87z" />
    <glyph glyph-name="zero.osf.zero" horiz-adv-x="558" 
d="M279 576q109 0 170 -78.5t61 -214.5t-61 -214.5t-170 -78.5t-170 78.5t-61 214.5t61 214.5t170 78.5zM279 550q-96 0 -147.5 -73t-51.5 -194q0 -99 35 -166l313 357q-52 76 -149 76zM279 16q96 0 147.5 73t51.5 194q0 99 -35 166l-313 -357q52 -76 149 -76z" />
    <glyph glyph-name="zero.tf.zero" horiz-adv-x="630" 
d="M315 712q109 0 170 -97t61 -265t-61 -265t-170 -97t-170 97t-61 265t61 265t170 97zM315 684q-96 0 -147.5 -91t-51.5 -243q0 -134 39 -219l306 464q-52 89 -146 89zM315 14q96 0 147.5 92t51.5 244q0 134 -39 218l-306 -464q52 -90 146 -90z" />
    <glyph glyph-name="zero.tosf.zero" horiz-adv-x="630" 
d="M315 576q109 0 170 -78.5t61 -214.5t-61 -214.5t-170 -78.5t-170 78.5t-61 214.5t61 214.5t170 78.5zM315 550q-96 0 -147.5 -73t-51.5 -194q0 -99 35 -166l313 357q-52 76 -149 76zM315 16q96 0 147.5 73t51.5 194q0 99 -35 166l-313 -357q52 -76 149 -76z" />
    <glyph glyph-name="zero.dnom" horiz-adv-x="368" 
d="M183 366q67 0 104 -50.5t37 -138.5t-37 -138.5t-104 -50.5q-66 0 -102.5 50.5t-36.5 138.5t36.5 138.5t102.5 50.5zM183 12q53 0 82 45t29 120t-29 120t-82 45q-52 0 -80.5 -45t-28.5 -120t28.5 -120t80.5 -45z" />
    <glyph glyph-name="one.dnom" horiz-adv-x="196" 
d="M101 360h23v-360h-30v320l-64 -54v35z" />
    <glyph glyph-name="two.dnom" horiz-adv-x="293" 
d="M60 24h203v-24h-243v22l130 137q29 31 40.5 45t22.5 35t11 41q0 34 -21 51t-56 17q-39 0 -62.5 -25.5t-27.5 -75.5l-29 2q4 61 36.5 92t82.5 31q49 0 78 -24.5t29 -67.5q0 -32 -18.5 -61.5t-62.5 -75.5z" />
    <glyph glyph-name="three.dnom" horiz-adv-x="302" 
d="M230 191q42 -29 42 -88q0 -54 -35.5 -84.5t-95.5 -30.5q-53 0 -87.5 27t-39.5 80l30 2q4 -43 30.5 -64t66.5 -21q44 0 72.5 24.5t28.5 66.5q0 39 -25.5 62.5t-72.5 23.5q-25 0 -56 -6v22l135 131h-193v24h233v-22l-135 -127q65 6 102 -20z" />
    <glyph glyph-name="four.dnom" horiz-adv-x="354" 
d="M264 113h62v-24h-62v-89h-30v89h-212v22l193 249h49v-247zM54 113h180v231z" />
    <glyph glyph-name="five.dnom" horiz-adv-x="322" 
d="M167 234q56 0 90.5 -32.5t34.5 -89.5q0 -58 -35.5 -91t-95.5 -33q-54 0 -90 26t-43 73l25 1q7 -36 36 -56t72 -20q44 0 72.5 25t28.5 75t-28 74t-71 24q-70 0 -104 -46l-22 1l17 195h218v-24h-199l-13 -146q41 44 107 44z" />
    <glyph glyph-name="six.dnom" horiz-adv-x="348" 
d="M189 230q56 0 92 -32.5t36 -88.5q0 -57 -35.5 -89t-96.5 -32q-68 0 -104.5 45t-36.5 135q0 95 38 146.5t104 51.5q50 0 81 -27.5t35 -71.5l-28 -3q-3 34 -26.5 56t-61.5 22q-63 0 -92 -61q-19 -39 -20 -120q13 33 43.5 51t71.5 18zM185 12q46 0 74 26.5t28 70.5t-28 70.5
t-74 26.5q-47 0 -74.5 -26.5t-27.5 -70.5t28 -70.5t74 -26.5z" />
    <glyph glyph-name="seven.dnom" horiz-adv-x="273" 
d="M20 360h239v-21q-106 -167 -148 -339h-32q38 164 152 336h-211v24z" />
    <glyph glyph-name="eight.dnom" horiz-adv-x="348" 
d="M220 184q44 -8 68 -33t24 -62q0 -48 -38 -74.5t-100 -26.5t-100 26.5t-38 74.5q0 37 24.5 62t68.5 33q-84 17 -84 88q0 45 36 69.5t93 24.5t93 -24.5t36 -69.5q0 -71 -83 -88zM75 268q0 -35 27.5 -54t71.5 -19t71.5 19t27.5 54q0 36 -27 55t-72 19t-72 -19t-27 -55z
M174 12q48 0 78 21t30 59q0 37 -30 58t-78 21t-78 -21t-30 -58q0 -38 30 -59t78 -21z" />
    <glyph glyph-name="nine.dnom" horiz-adv-x="348" 
d="M163 366q141 0 141 -180q0 -97 -36 -147.5t-105 -50.5q-52 0 -82.5 27t-34.5 72l28 3q3 -35 27 -56.5t62 -21.5q60 0 89 57q21 40 22 127q-28 -68 -115 -68q-56 0 -92 31.5t-36 86.5t35.5 87.5t96.5 32.5zM163 152q46 0 74 25.5t28 68.5t-28 69.5t-74 26.5t-74 -26.5
t-28 -69.5t28 -68.5t74 -25.5z" />
    <glyph glyph-name="zero.numr" horiz-adv-x="368" 
d="M183 712q67 0 104 -50.5t37 -138.5t-37 -138.5t-104 -50.5q-66 0 -102.5 50.5t-36.5 138.5t36.5 138.5t102.5 50.5zM183 358q53 0 82 45t29 120t-29 120t-82 45q-52 0 -80.5 -45t-28.5 -120t28.5 -120t80.5 -45z" />
    <glyph glyph-name="one.numr" horiz-adv-x="196" 
d="M101 700h23v-360h-30v320l-64 -54v35z" />
    <glyph glyph-name="two.numr" horiz-adv-x="293" 
d="M60 364h203v-24h-243v22l130 137q29 31 40.5 45t22.5 35t11 41q0 34 -21 51t-56 17q-39 0 -62.5 -25.5t-27.5 -75.5l-29 2q4 61 36.5 92t82.5 31q49 0 78 -24.5t29 -67.5q0 -32 -18.5 -61.5t-62.5 -75.5z" />
    <glyph glyph-name="three.numr" horiz-adv-x="302" 
d="M230 531q42 -29 42 -88q0 -54 -35.5 -84.5t-95.5 -30.5q-53 0 -87.5 27t-39.5 80l30 2q4 -43 30.5 -64t66.5 -21q44 0 72.5 24.5t28.5 66.5q0 39 -25.5 62.5t-72.5 23.5q-25 0 -56 -6v22l135 131h-193v24h233v-22l-135 -127q65 6 102 -20z" />
    <glyph glyph-name="four.numr" horiz-adv-x="354" 
d="M264 453h62v-24h-62v-89h-30v89h-212v22l193 249h49v-247zM54 453h180v231z" />
    <glyph glyph-name="five.numr" horiz-adv-x="322" 
d="M167 576q56 0 90.5 -32.5t34.5 -89.5q0 -58 -35.5 -91t-95.5 -33q-54 0 -90 26t-43 73l25 1q7 -36 36 -56t72 -20q44 0 74.5 25.5t30.5 74.5t-29.5 73.5t-73.5 24.5q-70 0 -104 -46l-22 1l17 195h218v-24h-199l-13 -146q41 44 107 44z" />
    <glyph glyph-name="six.numr" horiz-adv-x="348" 
d="M189 576q56 0 92 -32.5t36 -88.5q0 -57 -35.5 -89t-96.5 -32q-68 0 -104.5 45t-36.5 135q0 95 38 146.5t104 51.5q50 0 81 -27.5t35 -71.5l-28 -3q-3 34 -26.5 56t-61.5 22q-63 0 -92 -61q-19 -39 -20 -120q13 33 43.5 51t71.5 18zM185 358q46 0 74 26.5t28 70.5
t-28 70.5t-74 26.5q-47 0 -74.5 -26.5t-27.5 -70.5t28 -70.5t74 -26.5z" />
    <glyph glyph-name="seven.numr" horiz-adv-x="273" 
d="M20 700h239v-21q-106 -167 -148 -339h-32q38 164 152 336h-211v24z" />
    <glyph glyph-name="eight.numr" horiz-adv-x="348" 
d="M220 530q44 -8 68 -33t24 -62q0 -48 -38 -74.5t-100 -26.5t-100 26.5t-38 74.5q0 37 24.5 62t68.5 33q-84 17 -84 88q0 45 36 69.5t93 24.5t93 -24.5t36 -69.5q0 -71 -83 -88zM75 614q0 -35 27.5 -54t71.5 -19t71.5 19t27.5 54q0 36 -27 55t-72 19t-72 -19t-27 -55z
M174 358q48 0 78 21t30 59q0 37 -30 58t-78 21t-78 -21t-30 -58q0 -38 30 -59t78 -21z" />
    <glyph glyph-name="nine.numr" horiz-adv-x="348" 
d="M163 712q141 0 141 -180q0 -97 -36 -147.5t-105 -50.5q-52 0 -82.5 27t-34.5 72l28 3q3 -35 27 -56.5t62 -21.5q60 0 89 57q21 40 22 127q-28 -68 -115 -68q-56 0 -92 31.5t-36 86.5t35.5 87.5t96.5 32.5zM163 498q46 0 74 25.5t28 68.5t-28 69.5t-74 26.5t-74 -26.5
t-28 -69.5t28 -68.5t74 -25.5z" />
    <glyph glyph-name="zero.sups" horiz-adv-x="414" 
d="M48 548q0 104 42 164.5t117 60.5t117 -60.5t42 -164.5t-42 -164.5t-117 -60.5t-117 60.5t-42 164.5zM78 548q0 -91 33.5 -146t95.5 -55t95.5 55t33.5 146t-33.5 145.5t-95.5 54.5t-95.5 -54.5t-33.5 -145.5z" />
    <glyph glyph-name="one.sups" horiz-adv-x="235" 
d="M117 764h25v-431h-30v391l-78 -72v37z" />
    <glyph glyph-name="two.sups" horiz-adv-x="331" 
d="M59 355h242v-24h-281v22l154 167q48 51 67.5 81t19.5 66q0 41 -26 62t-67 21q-101 0 -111 -124l-28 3q4 72 41.5 108.5t97.5 36.5q57 0 90 -28.5t33 -78.5q0 -39 -21 -73t-74 -91z" />
    <glyph glyph-name="three.sups" horiz-adv-x="347" 
d="M263 562q49 -32 49 -102q0 -62 -40.5 -98t-109.5 -36q-62 0 -101 31t-45 93l28 2q5 -52 37 -77t81 -25q53 0 86.5 29t33.5 81q0 48 -30 76.5t-87 28.5q-29 0 -64 -6v21l163 160h-230v24h267v-21l-165 -158q80 9 127 -23z" />
    <glyph glyph-name="four.sups" horiz-adv-x="407" 
d="M303 463h72v-24h-72v-106h-30v106h-245v23l227 302h48v-301zM59 463h214v285z" />
    <glyph glyph-name="five.sups" horiz-adv-x="372" 
d="M193 614q63 0 102 -38.5t39 -104.5q0 -68 -40.5 -106.5t-108.5 -38.5q-61 0 -101.5 30.5t-48.5 83.5l28 2q7 -45 40 -68.5t82 -23.5q50 0 84.5 30.5t34.5 90.5t-33.5 89.5t-83.5 29.5q-79 0 -117 -56l-25 2l19 228h248v-24h-225l-15 -175q46 49 121 49z" />
    <glyph glyph-name="six.sups" horiz-adv-x="399" 
d="M213 611q64 0 105 -38.5t41 -105.5t-40.5 -105t-110.5 -38q-160 0 -160 213q0 114 42 175.5t120 61.5q58 0 92.5 -32.5t39.5 -84.5l-28 -2q-4 43 -31.5 69t-72.5 26q-75 0 -108 -73q-24 -50 -25 -153q14 40 50.5 63.5t85.5 23.5zM208 348q55 0 88 32.5t33 86.5
q0 55 -33 87.5t-88 32.5q-54 0 -87.5 -33t-33.5 -87t33.5 -86.5t87.5 -32.5z" />
    <glyph glyph-name="seven.sups" horiz-adv-x="316" 
d="M22 764h278v-21q-126 -201 -176 -410h-32q49 205 180 407h-250v24z" />
    <glyph glyph-name="eight.sups" horiz-adv-x="394" 
d="M247 558q51 -10 79 -40.5t28 -74.5q0 -55 -43.5 -87t-113.5 -32t-113.5 32t-43.5 87q0 45 28 75t80 40q-45 9 -71.5 35.5t-26.5 69.5q0 53 41 82t106 29t106 -29t41 -82q0 -43 -26 -69.5t-71 -35.5zM80 659q0 -45 32.5 -68t84.5 -23t84.5 23t32.5 68t-32.5 68t-84.5 23
t-84.5 -23t-32.5 -68zM197 348q57 0 92 25.5t35 72.5t-35 72.5t-92 25.5t-92 -25.5t-35 -72.5t35 -72.5t92 -25.5z" />
    <glyph glyph-name="nine.sups" horiz-adv-x="399" 
d="M191 774q160 0 160 -213q0 -116 -40.5 -176.5t-119.5 -60.5q-60 0 -94.5 32t-39.5 85l28 2q4 -43 31.5 -69t74.5 -26q78 0 111 82q19 47 20 147q-14 -40 -50.5 -63t-86.5 -23q-62 0 -103.5 38.5t-41.5 102.5q0 66 41 104t110 38zM191 515q54 0 87.5 32t33.5 85
t-33.5 85.5t-87.5 32.5q-55 0 -88 -32.5t-33 -85.5t33 -85t88 -32z" />
    <glyph glyph-name="exclamdown.case" horiz-adv-x="250" 
d="M102 700h46v-72h-46v72zM138 527l7 -527h-40l7 527h26z" />
    <glyph glyph-name="questiondown.case" horiz-adv-x="463" 
d="M269 700v-72h-46v72h46zM221 -12q-84 0 -133.5 42t-49.5 127q0 60 27.5 105t91.5 100q43 36 57.5 62t14.5 80v22h34v-24q0 -44 -11.5 -75t-25 -45.5t-44.5 -40.5q-57 -47 -83.5 -87.5t-26.5 -96.5q0 -71 39.5 -106t109.5 -35q82 0 130.5 48t55.5 146l32 -2
q-7 -110 -64.5 -165t-153.5 -55z" />
    <glyph glyph-name="braceleft.case" horiz-adv-x="310" 
d="M176 483q0 -120 -78 -139v-4q78 -19 78 -139v-134q0 -61 20.5 -87.5t69.5 -26.5h6v-24h-8q-60 0 -89 31.5t-29 101.5v133q0 78 -25 106.5t-70 28.5h-6v24h6q45 0 70 28.5t25 106.5v133q0 70 29 101.5t89 31.5h8v-24h-6q-49 0 -69.5 -26.5t-20.5 -87.5v-134z" />
    <glyph glyph-name="braceright.case" horiz-adv-x="310" 
d="M259 354h6v-24h-6q-45 0 -70 -28.5t-25 -106.5v-133q0 -70 -29 -101.5t-89 -31.5h-8v24h6q49 0 69.5 26.5t20.5 87.5v134q0 120 78 139v4q-78 19 -78 139v134q0 61 -20.5 87.5t-69.5 26.5h-6v24h8q60 0 89 -31.5t29 -101.5v-133q0 -78 25 -106.5t70 -28.5z" />
    <glyph glyph-name="bracketleft.case" horiz-adv-x="252" 
d="M214 731h-88v-778h88v-24h-118v826h118v-24z" />
    <glyph glyph-name="bracketright.case" horiz-adv-x="252" 
d="M156 755v-826h-118v24h88v778h-88v24h118z" />
    <glyph glyph-name="parenleft.case" horiz-adv-x="269" 
d="M86 350q0 -258 169 -422h-32q-171 158 -171 422t171 422h32q-169 -164 -169 -422z" />
    <glyph glyph-name="parenright.case" horiz-adv-x="269" 
d="M46 772q171 -158 171 -422t-171 -422h-32q169 164 169 422t-169 422h32z" />
    <glyph glyph-name="emdash.case" horiz-adv-x="673" 
d="M64 368h545v-26h-545v26z" />
    <glyph glyph-name="endash.case" horiz-adv-x="544" 
d="M64 368h416v-26h-416v26z" />
    <glyph glyph-name="hyphen.case" horiz-adv-x="365" 
d="M64 368h237v-26h-237v26z" />
    <glyph glyph-name="guillemotleft.case" horiz-adv-x="373" 
d="M194 516l-133 -166l133 -166h-39l-119 151v30l119 151h39zM325 516l-133 -166l133 -166h-39l-119 151v30l119 151h39z" />
    <glyph glyph-name="guillemotright.case" horiz-adv-x="373" 
d="M87 516l119 -151v-30l-119 -151h-39l133 166l-133 166h39zM218 516l119 -151v-30l-119 -151h-39l133 166l-133 166h39z" />
    <glyph glyph-name="guilsinglleft.case" horiz-adv-x="242" 
d="M194 516l-133 -166l133 -166h-39l-119 151v30l119 151h39z" />
    <glyph glyph-name="guilsinglright.case" horiz-adv-x="242" 
d="M87 516l119 -151v-30l-119 -151h-39l133 166l-133 166h39z" />
    <glyph glyph-name="arrowup.ss01" 
d="M408 -12q-152 0 -256 100.5t-104 261.5t104 261.5t256 100.5t256 -100.5t104 -261.5t-104 -261.5t-256 -100.5zM247 341l145 140v-309h32v309l145 -140l-1 44l-160 152l-161 -152v-44z" />
    <glyph glyph-name="uni2197.ss01" 
d="M408 -12q-152 0 -256 100.5t-104 261.5t104 261.5t256 100.5t256 -100.5t104 -261.5t-104 -261.5t-256 -100.5zM269 231l21 -21l222 222l-1 -203l30 32v221h-222l-31 -30l203 2z" />
    <glyph glyph-name="arrowright.ss01" 
d="M408 -12q-152 0 -256 100.5t-104 261.5t104 261.5t256 100.5t256 -100.5t104 -261.5t-104 -261.5t-256 -100.5zM235 336h301l-142 -146h44l152 160l-152 161h-44l141 -146h-300v-29z" />
    <glyph glyph-name="uni2198.ss01" 
d="M408 -12q-152 0 -256 100.5t-104 261.5t104 261.5t256 100.5t256 -100.5t104 -261.5t-104 -261.5t-256 -100.5zM269 469l222 -223l-203 2l31 -30h222v221l-30 32l1 -203l-222 222z" />
    <glyph glyph-name="arrowdown.ss01" 
d="M408 -12q-152 0 -256 100.5t-104 261.5t104 261.5t256 100.5t256 -100.5t104 -261.5t-104 -261.5t-256 -100.5zM247 359v-44l161 -152l160 152l1 44l-145 -140v309h-32v-309z" />
    <glyph glyph-name="uni2199.ss01" 
d="M408 -12q-152 0 -256 100.5t-104 261.5t104 261.5t256 100.5t256 -100.5t104 -261.5t-104 -261.5t-256 -100.5zM547 469l-21 21l-222 -222l1 203l-30 -32v-221h222l31 30l-203 -2z" />
    <glyph glyph-name="arrowleft.ss01" 
d="M408 -12q-152 0 -256 100.5t-104 261.5t104 261.5t256 100.5t256 -100.5t104 -261.5t-104 -261.5t-256 -100.5zM581 336v29h-300l141 146h-44l-152 -161l152 -160h44l-142 146h301z" />
    <glyph glyph-name="uni2196.ss01" 
d="M408 -12q-152 0 -256 100.5t-104 261.5t104 261.5t256 100.5t256 -100.5t104 -261.5t-104 -261.5t-256 -100.5zM547 231l-222 223l203 -2l-31 30h-222v-221l30 -32l-1 203l222 -222z" />
    <glyph glyph-name="arrowboth.ss01" 
d="M408 -12q-152 0 -256 100.5t-104 261.5t104 261.5t256 100.5t256 -100.5t104 -261.5t-104 -261.5t-256 -100.5zM182 350l121 -128h42l-111 114h348l-111 -114h42l121 128l-122 128h-41l111 -114h-348l111 114h-41z" />
    <glyph glyph-name="arrowupdn.ss01" 
d="M408 -12q-152 0 -256 100.5t-104 261.5t104 261.5t256 100.5t256 -100.5t104 -261.5t-104 -261.5t-256 -100.5zM280 246l128 -121l128 122v41l-113 -110v346l113 -110v41l-128 122l-128 -121v-42l112 109v-344l-112 109v-42z" />
    <glyph glyph-name="at.case" horiz-adv-x="875" 
d="M438 734q168 0 277.5 -107.5t109.5 -267.5q0 -98 -41.5 -152t-110.5 -54q-46 0 -78 24.5t-41 72.5q-17 -50 -53 -78t-83 -28q-68 0 -111 55t-43 149q0 95 42.5 150.5t110.5 55.5q46 0 81 -26t52 -70v86h30v-214q0 -77 23 -114.5t74 -37.5q57 0 88.5 47t31.5 132
q0 147 -103 249.5t-256 102.5q-149 0 -254.5 -105.5t-105.5 -256.5q0 -161 102 -262t268 -101q119 0 206 43l16 -23q-91 -45 -222 -45q-181 0 -289.5 106t-108.5 282q0 166 112 276.5t276 110.5zM422 170q59 0 93.5 48.5t34.5 129.5q0 83 -34.5 131.5t-93.5 48.5
t-93.5 -48.5t-34.5 -131.5q0 -81 34.5 -129.5t93.5 -48.5z" />
    <glyph glyph-name="russianfonts" horiz-adv-x="614" 
d="M54 213q0 -65 13 -114q12 -51 32 -80.5t41 -29.5q38 0 85.5 44.5t88.5 121.5q41 78 60 148q2 6 8 31v-288l-34 -23v-23h173v23l-35 23v322l35 24v23h-139q-6 -22 -16 -49q-11 -32 -33 -91q-51 -128 -97 -176q-28 -30 -43 -30q-8 0 -8 40q0 47 17 115q17 65 54 127.5
t77 94.5q37 30 73 39.5t92 9.5h23v6q0 33 -16 72q-17 44 -48 72t-69 28q-66 0 -143 -46q-84 -49 -137.5 -155t-53.5 -259z" />
    </font>
</defs>
</svg>
